<?xml version="1.0" standalone="no"?>
<!DOCTYPE svg PUBLIC "-//W3C//DTD SVG 1.1//EN" "http://www.w3.org/Graphics/SVG/1.1/DTD/svg11.dtd" >
<svg xmlns="http://www.w3.org/2000/svg" xmlns:xlink="http://www.w3.org/1999/xlink" version="1.1">
<metadata>
Created by FontForge 20161013 at Thu Mar  7 19:06:24 2013
 By ,,,
Copyright (c) 2012 Linotype GmbH, www.linotype.com. All rights reserved. This font software may not be reproduced, modified, disclosed or transferred without the express written approval of Linotype GmbH. Avenir is a trademark of Linotype GmbH registered in the U.S. Patent and Trademark Office and may be registered in certain other jurisdictions. This typeface is original artwork of Adrian Frutiger and Akira Kobayashi. The design may be protected in certain jurisdictions.
</metadata>
<defs>
<font id="AvenirNextLTPro-Thin" horiz-adv-x="356" >
  <font-face 
    font-family="AvenirNext LT Pro Thin"
    font-weight="275"
    font-stretch="normal"
    units-per-em="1000"
    panose-1="2 11 3 3 2 2 2 2 2 4"
    ascent="756"
    descent="-244"
    x-height="462"
    cap-height="708"
    bbox="-197 -250 968 945"
    underline-thickness="50"
    underline-position="-200"
    unicode-range="U+000D-FB04"
  />
<missing-glyph horiz-adv-x="512" 
d="M278 117h-56v67h56v-67zM271 234h-46l-2 17q0 54 11 78.5t48 61.5q32 32 41 47.5t9 35.5q0 36 -22.5 60.5t-53.5 24.5q-71 0 -82 -95l-50 8q6 69 42 103t93 34q55 0 89.5 -36t34.5 -95q0 -34 -13 -60t-50 -60q-37 -32 -43 -49.5t-6 -74.5zM50 50h412v617h-412v-617z
M0 718h512v-718h-512v718z" />
    <glyph glyph-name="IJ" unicode="IJ" horiz-adv-x="715" 
d="M140 708v-708h-38v708h38zM259 103l34 12q18 -46 54 -73t85 -27q77 0 112.5 50.5t35.5 134.5v508h38v-512q0 -94 -46 -154t-138 -60q-64 0 -110.5 34t-64.5 87z" />
    <glyph glyph-name="ij" unicode="ij" horiz-adv-x="468" 
d="M214 -236l6 30q15 -4 31 -4q27 0 44.5 9t25 27.5t10 36t2.5 43.5v556h37v-558q0 -72 -25.5 -108.5t-93.5 -36.5q-19 0 -37 5zM99 0v462h36v-462h-36zM117 623q-13 0 -22 9.5t-9 23.5t9.5 23t21.5 9t21 -9t9 -23t-9 -23.5t-21 -9.5zM352 623q-12 0 -21.5 9.5t-9.5 23.5
t9.5 23t21.5 9t21 -9t9 -23t-9 -23.5t-21 -9.5z" />
    <glyph glyph-name="napostrophe" unicode="&#x22;n" horiz-adv-x="575" 
d="M96 462h35q4 -32 4 -108h2q20 56 68 89t105 33q87 0 129.5 -55.5t42.5 -139.5v-281h-36v271q0 73 -32 123.5t-107 50.5q-72 0 -121 -57t-49 -155v-233h-37v350q0 76 -4 112zM125 723l-64 -185h-29l55 185h38z" />
    <glyph glyph-name="f_f" unicode="ff" horiz-adv-x="542" 
d="M530 462v-30h-121v-432h-36v432h-219v-432h-36v432h-98v30h97v154q0 79 36.5 115.5t95.5 36.5q28 0 49 -6l-6 -31q-21 6 -43 6q-51 0 -73 -34.5t-22 -88.5v-152h218v154q0 79 37 115.5t96 36.5q27 0 49 -6l-7 -31q-19 6 -43 6q-51 0 -73 -34.5t-22 -88.5v-152h121z" />
    <glyph glyph-name="fi" unicode="fi" horiz-adv-x="509" 
d="M411 462v-462h-37v462h37zM423 656q0 -14 -9 -23.5t-21 -9.5q-13 0 -22 9.5t-9 23.5t9.5 23t21.5 9t21 -9t9 -23zM274 462v-30h-120v-432h-36v432h-98v30h97v154q0 79 36.5 115.5t95.5 36.5q28 0 49 -6l-6 -31q-21 6 -43 6q-51 0 -73 -34.5t-22 -88.5v-152h120z" />
    <glyph glyph-name="fl" unicode="fl" horiz-adv-x="509" 
d="M411 756v-756h-37v756h37zM274 462v-30h-120v-432h-36v432h-98v30h97v154q0 79 36.5 115.5t95.5 36.5q28 0 49 -6l-6 -31q-21 6 -43 6q-51 0 -73 -34.5t-22 -88.5v-152h120z" />
    <glyph glyph-name="f_f_i" unicode="ffi" horiz-adv-x="765" 
d="M530 462v-30h-121v-432h-36v432h-219v-432h-36v432h-98v30h97v154q0 79 36.5 115.5t95.5 36.5q28 0 49 -6l-6 -31q-21 6 -43 6q-51 0 -73 -34.5t-22 -88.5v-152h218v154q0 79 37 115.5t96 36.5q27 0 49 -6l-7 -31q-19 6 -43 6q-51 0 -73 -34.5t-22 -88.5v-152h121z
M666 462v-462h-36v462h36zM679 656q0 -14 -9.5 -23.5t-21.5 -9.5t-21 9.5t-9 23.5t9 23t21 9t21.5 -9t9.5 -23z" />
    <glyph glyph-name="f_f_l" unicode="ffl" horiz-adv-x="765" 
d="M666 756v-756h-36v756h36zM530 462v-30h-121v-432h-36v432h-219v-432h-36v432h-98v30h97v154q0 79 36.5 115.5t95.5 36.5q28 0 49 -6l-6 -31q-21 6 -43 6q-51 0 -73 -34.5t-22 -88.5v-152h218v154q0 79 37 115.5t96 36.5q27 0 49 -6l-7 -31q-19 6 -43 6q-51 0 -73 -34.5
t-22 -88.5v-152h121z" />
    <glyph glyph-name=".notdef" horiz-adv-x="512" 
d="M278 117h-56v67h56v-67zM271 234h-46l-2 17q0 54 11 78.5t48 61.5q32 32 41 47.5t9 35.5q0 36 -22.5 60.5t-53.5 24.5q-71 0 -82 -95l-50 8q6 69 42 103t93 34q55 0 89.5 -36t34.5 -95q0 -34 -13 -60t-50 -60q-37 -32 -43 -49.5t-6 -74.5zM50 50h412v617h-412v-617z
M0 718h512v-718h-512v718z" />
    <glyph glyph-name=".null" horiz-adv-x="500" 
 />
    <glyph glyph-name=".null" horiz-adv-x="500" 
 />
    <glyph glyph-name="nonmarkingreturn" horiz-adv-x="333" 
 />
    <glyph glyph-name="CR" unicode="&#xd;" horiz-adv-x="0" 
 />
    <glyph glyph-name="space" unicode=" " horiz-adv-x="250" 
 />
    <glyph glyph-name="exclam" unicode="!" horiz-adv-x="292" 
d="M165 708v-514h-38v514h38zM179 28q0 -14 -9.5 -24t-23.5 -10t-23.5 10t-9.5 24q0 15 9.5 25t23.5 10t23.5 -10t9.5 -25z" />
    <glyph glyph-name="quotedbl" unicode="&#x22;" horiz-adv-x="404" 
d="M113 478v230h34v-230h-34zM257 478v230h34v-230h-34z" />
    <glyph glyph-name="numbersign" unicode="#" horiz-adv-x="552" 
d="M109 0l30 232h-108v30h112l25 186h-110v30h115l29 230h32l-30 -230h160l30 230h32l-30 -230h105v-30h-109l-25 -186h107v-30h-111l-30 -232h-32l30 232h-160l-30 -232h-32zM200 448l-24 -186h159l25 186h-160z" />
    <glyph glyph-name="dollar" unicode="$" horiz-adv-x="566" 
d="M257 382v307q-64 -6 -108 -45.5t-44 -105.5q0 -63 41 -99t111 -57zM288 336v-318q69 2 117.5 43.5t48.5 114.5q0 63 -44.5 99.5t-121.5 60.5zM257 18v326q-91 28 -139.5 70t-48.5 123q0 78 53 127.5t135 55.5v72h31v-71q123 -2 189 -79l-29 -24q-54 72 -160 72v-318
q39 -13 64 -23.5t54 -27.5t45.5 -36t28 -47.5t11.5 -63.5q0 -84 -57 -134.5t-146 -52.5v-71h-31v71q-127 4 -203 95l29 22q65 -80 174 -86z" />
    <glyph glyph-name="percent" unicode="%" horiz-adv-x="824" 
d="M373 553q0 -70 -47 -117t-115 -47t-115.5 47.5t-47.5 116.5q0 68 47.5 116t115.5 48t115 -48t47 -116zM340 553q0 55 -38 93.5t-91 38.5q-54 0 -91.5 -38t-37.5 -94t37.5 -94t91.5 -38q53 0 91 38.5t38 93.5zM776 154q0 -69 -47.5 -116t-115.5 -47t-115 47t-47 116
t47 116.5t115 47.5t115.5 -47.5t47.5 -116.5zM742 154q0 56 -38 94t-91 38q-54 0 -91.5 -38t-37.5 -94t37.5 -94t91.5 -38q53 0 91 38t38 94zM645 721l-443 -749l-27 16l443 749z" />
    <glyph glyph-name="ampersand" unicode="&#x26;" horiz-adv-x="704" 
d="M643 373l-126 -223l142 -150h-51l-111 118q-90 -134 -224 -134q-89 0 -147.5 53t-58.5 144q0 73 43 121t127 91q-49 53 -70 93t-21 83q0 71 45.5 114t115.5 43q66 0 110.5 -41.5t44.5 -104.5t-42.5 -105.5t-127.5 -88.5l199 -212l110 199h42zM425 577q0 53 -34 85.5
t-85 32.5q-53 0 -88.5 -35t-35.5 -90q0 -41 23 -79t65 -83q75 38 115 76t40 93zM472 144l-213 225q-73 -37 -113.5 -81t-40.5 -108q0 -73 50 -118.5t122 -45.5q120 0 195 128z" />
    <glyph glyph-name="quotesingle" unicode="'" horiz-adv-x="260" 
d="M113 478v230h34v-230h-34z" />
    <glyph glyph-name="parenleft" unicode="(" horiz-adv-x="300" 
d="M97 288q0 -112 35 -229t93 -199l-30 -17q-62 88 -98 206t-36 239t36 239t98 206l30 -17q-58 -82 -93 -199t-35 -229z" />
    <glyph glyph-name="parenright" unicode=")" horiz-adv-x="300" 
d="M202 288q0 112 -35 230t-94 198l30 17q63 -89 99 -206t36 -239t-36 -239t-99 -206l-30 17q59 80 94 198t35 230z" />
    <glyph glyph-name="asterisk" unicode="*" horiz-adv-x="444" 
d="M237 708v-162l156 49l11 -29l-158 -48l99 -136l-25 -18l-98 138l-98 -138l-25 18l99 136l-158 48l11 29l156 -49v162h30z" />
    <glyph glyph-name="plus" unicode="+" horiz-adv-x="666" 
d="M351 548v-228h222v-32h-222v-228h-33v228h-225v32h225v228h33z" />
    <glyph glyph-name="comma" unicode="," horiz-adv-x="246" 
d="M162 92l-70 -231h-29l60 231h39z" />
    <glyph glyph-name="hyphen" unicode="-" horiz-adv-x="306" 
d="M250 266v-31h-194v31h194z" />
    <glyph glyph-name="period" unicode="." horiz-adv-x="246" 
d="M156 29q0 -15 -9.5 -25t-23.5 -10t-23 10t-9 25q0 14 9 24t23 10t23.5 -10t9.5 -24z" />
    <glyph glyph-name="slash" unicode="/" horiz-adv-x="370" 
d="M354 717l-306 -733l-31 11l306 733z" />
    <glyph glyph-name="zero" unicode="0" horiz-adv-x="566" 
d="M283 722q52 0 92 -22.5t64.5 -58t40 -85.5t21.5 -98.5t6 -103.5q0 -70 -10 -130.5t-34 -116.5t-70 -88.5t-110 -32.5q-65 0 -111 32.5t-69.5 88.5t-33.5 116.5t-10 130.5q0 55 5.5 103.5t21 98.5t40 85.5t65 58t92.5 22.5zM283 689q-47 0 -82 -24t-54.5 -59.5t-31 -84
t-15 -87.5t-3.5 -80t3.5 -80t15 -87.5t31 -84t54.5 -59.5t82 -24q57 0 97 34.5t57.5 91t24.5 106t7 103.5t-7 103.5t-24.5 106t-57.5 91t-97 34.5z" />
    <glyph glyph-name="one" unicode="1" horiz-adv-x="566" 
d="M326 708v-708h-37v663l-132 -113l-23 27l157 131h35z" />
    <glyph glyph-name="two" unicode="2" horiz-adv-x="566" 
d="M474 34v-34h-415v41l261 291q55 61 82.5 109t27.5 97q0 69 -43.5 110.5t-110.5 41.5q-57 0 -99.5 -33t-58.5 -90l-37 9q18 68 70.5 107t124.5 39q83 0 137.5 -50t54.5 -129q0 -61 -30.5 -113.5t-99.5 -128.5l-239 -267h375z" />
    <glyph glyph-name="three" unicode="3" horiz-adv-x="566" 
d="M217 355v33h25q72 0 123 39t51 115q0 66 -44 107t-108 41q-94 0 -143 -76l-28 19q61 89 173 89q80 0 133 -48t53 -130q0 -63 -35.5 -109.5t-101.5 -60.5v-2q77 -14 119 -64t42 -119q0 -88 -56 -145.5t-155 -57.5q-71 0 -123.5 31.5t-79.5 89.5l32 16q21 -47 67 -74.5
t104 -29.5q80 0 127 47.5t47 123.5q0 81 -60.5 123t-136.5 42h-25z" />
    <glyph glyph-name="four" unicode="4" horiz-adv-x="566" 
d="M408 708v-495h114v-33h-114v-180h-36v180h-329v40l313 488h52zM372 213v453h-3l-289 -453h292z" />
    <glyph glyph-name="five" unicode="5" horiz-adv-x="566" 
d="M455 708v-34h-299l-6 -257q48 22 113 22q99 0 160 -62.5t61 -160.5q0 -105 -64.5 -167.5t-156.5 -62.5q-129 0 -196 105l31 19q54 -91 164 -91q75 0 130 53t55 142q0 85 -53.5 139t-142.5 54q-73 0 -136 -36l5 337h335z" />
    <glyph glyph-name="six" unicode="6" horiz-adv-x="566" 
d="M361 708l-209 -344l2 -2q50 57 139 57q88 0 147 -61.5t59 -155.5t-61 -155t-156 -61q-94 0 -154.5 60.5t-60.5 155.5q0 81 61 187l189 319h44zM104 202q0 -80 50.5 -132t128.5 -52t128.5 52t50.5 132q0 81 -49 133.5t-126 52.5t-130 -53t-53 -133z" />
    <glyph glyph-name="seven" unicode="7" horiz-adv-x="566" 
d="M471 708v-39l-292 -669h-41l297 674h-358v34h394z" />
    <glyph glyph-name="eight" unicode="8" horiz-adv-x="566" 
d="M353 380v-2q71 -21 108 -72.5t37 -118.5q0 -90 -61.5 -145.5t-153.5 -55.5t-153 55.5t-61 145.5q0 66 38 118.5t106 72.5v2q-57 20 -87 65t-30 99q0 79 53.5 128.5t133.5 49.5t134 -49.5t54 -128.5q0 -53 -31 -98.5t-87 -65.5zM132 543q0 -62 43.5 -105.5t107.5 -43.5
q65 0 108.5 44t43.5 105q0 65 -44 106t-108 41q-65 0 -108 -41t-43 -106zM106 190q0 -74 49 -123t128 -49t128 49t49 123q0 75 -50.5 123.5t-126.5 48.5t-126.5 -48.5t-50.5 -123.5z" />
    <glyph glyph-name="nine" unicode="9" horiz-adv-x="566" 
d="M205 0l210 348l-2 2q-50 -57 -139 -57q-88 0 -147 60.5t-59 153.5q0 94 61 154.5t155 60.5q95 0 155.5 -59.5t60.5 -155.5q0 -81 -61 -184l-190 -323h-44zM462 507q0 80 -50 131.5t-128 51.5q-79 0 -129 -51.5t-50 -131.5q0 -79 49 -131t126 -52t129.5 52.5t52.5 130.5z
" />
    <glyph glyph-name="colon" unicode=":" horiz-adv-x="286" 
d="M176 430q0 -14 -9.5 -24t-23.5 -10t-23 10t-9 24t9 24t23 10t23.5 -10t9.5 -24zM176 29q0 -15 -9.5 -25t-23.5 -10t-23 10t-9 25q0 14 9 24t23 10t23.5 -10t9.5 -24z" />
    <glyph glyph-name="semicolon" unicode=";" horiz-adv-x="286" 
d="M176 430q0 -14 -9.5 -24t-23.5 -10t-23 10t-9 24t9 24t23 10t23.5 -10t9.5 -24zM173 92l-69 -231h-30l60 231h39z" />
    <glyph glyph-name="less" unicode="&#x3c;" horiz-adv-x="666" 
d="M573 547v-33l-446 -211l446 -211v-33l-480 229v30z" />
    <glyph glyph-name="equal" unicode="=" horiz-adv-x="666" 
d="M93 402h480v-32h-480v32zM93 237h480v-31h-480v31z" />
    <glyph glyph-name="greater" unicode="&#x3e;" horiz-adv-x="666" 
d="M93 514v33l480 -229v-30l-480 -229v33l446 211z" />
    <glyph glyph-name="question" unicode="?" horiz-adv-x="475" 
d="M257 242v-44h-36v55q0 43 18.5 77.5t70.5 79.5q44 37 62.5 66.5t18.5 74.5q0 66 -42.5 102.5t-106.5 36.5q-63 0 -104 -37t-51 -98l-36 6q14 77 66 120t127 43q80 0 132.5 -45.5t52.5 -125.5q0 -40 -14.5 -72.5t-30 -48.5t-46.5 -42q-50 -44 -65.5 -71t-15.5 -77zM275 28
q0 -14 -9 -24t-23 -10t-23.5 10t-9.5 24q0 15 9.5 25t23.5 10q13 0 22.5 -10t9.5 -25z" />
    <glyph glyph-name="at" unicode="@" horiz-adv-x="800" 
d="M426 519q-71 0 -115.5 -71t-44.5 -151q0 -44 22.5 -74.5t68.5 -30.5q38 0 69.5 25.5t49.5 62t28 73.5t10 65q0 43 -22 72t-66 29zM700 137l22 -23q-119 -133 -302 -133q-168 0 -272.5 106t-104.5 267q0 157 108.5 265t264.5 108q149 0 248 -87.5t99 -227.5
q0 -113 -53 -182.5t-141 -69.5q-38 0 -61 19t-23 53q0 9 1 12h-3q-16 -32 -51 -58t-81 -26q-59 0 -91 40t-32 99q0 60 23.5 117t70.5 96.5t105 39.5q43 0 70 -22t34 -60h4l17 65h33l-59 -222q-10 -38 -10 -66q0 -55 58 -55q74 0 114 63t40 155q0 126 -88.5 205t-223.5 79
q-144 0 -239 -100.5t-95 -240.5q0 -147 94.5 -243.5t245.5 -96.5q164 0 278 124z" />
    <glyph glyph-name="A" unicode="A" horiz-adv-x="677" 
d="M140 198l-83 -198h-41l306 708h41l298 -708h-41l-82 198h-398zM341 674l-187 -443h370z" />
    <glyph glyph-name="B" unicode="B" horiz-adv-x="619" 
d="M102 0v708h199q43 0 80.5 -8.5t70.5 -27t52 -53t19 -82.5q0 -65 -39.5 -106.5t-98.5 -54.5v-2q67 -7 119 -53.5t52 -129.5q0 -98 -69 -144.5t-170 -46.5h-215zM140 675v-287h162q74 0 128.5 36.5t54.5 108.5q0 75 -54 108.5t-139 33.5h-152zM140 356v-323h169
q94 0 151.5 39t57.5 118q0 82 -58 124t-139 42h-181z" />
    <glyph glyph-name="C" unicode="C" horiz-adv-x="723" 
d="M659 117l28 -22q-41 -53 -109.5 -83.5t-146.5 -30.5q-159 0 -261.5 105.5t-102.5 267.5t102.5 267.5t261.5 105.5q71 0 134.5 -25t104.5 -72l-27 -25q-35 41 -93 64.5t-119 23.5q-144 0 -234.5 -97.5t-90.5 -241.5q0 -143 90 -241t235 -98q67 0 128.5 26t99.5 76z" />
    <glyph glyph-name="D" unicode="D" horiz-adv-x="766" 
d="M102 0v708h212q79 0 147.5 -21.5t122 -63.5t84.5 -111t31 -158q0 -88 -31 -157t-84.5 -111.5t-122 -64t-147.5 -21.5h-212zM140 674v-640h164q162 0 259 84t97 236t-97 236t-259 84h-164z" />
    <glyph glyph-name="E" unicode="E" horiz-adv-x="591" 
d="M139 351v-317h398v-34h-435v708h421v-34h-384v-290h360v-33h-360z" />
    <glyph glyph-name="F" unicode="F" horiz-adv-x="561" 
d="M140 350v-350h-38v708h411v-34h-373v-291h347v-33h-347z" />
    <glyph glyph-name="G" unicode="G" horiz-adv-x="790" 
d="M678 641l-25 -26q-38 37 -97 58t-120 21q-147 0 -238.5 -98t-91.5 -241t91.5 -242t243.5 -99q120 0 218 49v261h-178v32h215v-312q-110 -63 -257 -63q-164 0 -268 106.5t-104 267.5q0 162 103.5 267t265.5 105q147 0 242 -86z" />
    <glyph glyph-name="H" unicode="H" horiz-adv-x="728" 
d="M102 0v708h38v-324h448v324h37v-708h-37v350h-448v-350h-38z" />
    <glyph glyph-name="I" unicode="I" horiz-adv-x="242" 
d="M140 708v-708h-38v708h38z" />
    <glyph glyph-name="J" unicode="J" horiz-adv-x="484" 
d="M28 103l34 12q16 -45 52.5 -72.5t85.5 -27.5q77 0 113 50.5t36 134.5v508h37v-512q0 -95 -45.5 -154.5t-137.5 -59.5q-65 0 -112 34t-63 87z" />
    <glyph glyph-name="K" unicode="K" horiz-adv-x="584" 
d="M140 708v-323l351 323h54l-359 -324l377 -384h-54l-369 380v-380h-38v708h38z" />
    <glyph glyph-name="L" unicode="L" horiz-adv-x="502" 
d="M140 708v-674h345v-34h-383v708h38z" />
    <glyph glyph-name="M" unicode="M" horiz-adv-x="900" 
d="M102 0v708h61l287 -648l287 648h61v-708h-38v662h-3l-296 -662h-24l-295 662h-2v-662h-38z" />
    <glyph glyph-name="N" unicode="N" horiz-adv-x="773" 
d="M152 708l479 -656h2v656h38v-708h-50l-479 658h-2v-658h-38v708h50z" />
    <glyph glyph-name="O" unicode="O" horiz-adv-x="865" 
d="M798 354q0 -162 -104 -267.5t-261 -105.5q-158 0 -262 105.5t-104 267.5t104 267.5t262 105.5t261.5 -105.5t103.5 -267.5zM759 354q0 143 -91 241.5t-235 98.5t-235.5 -98.5t-91.5 -241.5t91 -241t236 -98t235.5 98t90.5 241z" />
    <glyph glyph-name="P" unicode="P" horiz-adv-x="574" 
d="M102 0v708h195q96 0 160.5 -43.5t64.5 -136.5q0 -88 -61 -137t-156 -49h-165v-342h-38zM140 676v-302h165q78 0 128.5 38.5t50.5 115.5q0 76 -52.5 112t-130.5 36h-161z" />
    <glyph glyph-name="Q" unicode="Q" horiz-adv-x="871" 
d="M106 362q0 -138 91 -233.5t233 -95.5t232.5 98t90.5 231q0 138 -91 235t-233 97q-141 0 -232 -96.5t-91 -235.5zM832 34v-34h-404q-153 0 -257 101.5t-104 260.5t103 262t259 103t259 -104t103 -261q0 -111 -62.5 -203.5t-156.5 -122.5v-2h260z" />
    <glyph glyph-name="R" unicode="R" horiz-adv-x="596" 
d="M140 349v-349h-38v708h200q100 0 164 -41t64 -138q0 -86 -58.5 -130t-139.5 -47l212 -352h-44l-208 349h-152zM140 676v-294h158q94 0 144.5 37.5t50.5 109.5q0 147 -202 147h-151z" />
    <glyph glyph-name="S" unicode="S" horiz-adv-x="568" 
d="M486 646l-28 -24q-56 72 -159 72q-73 0 -127.5 -40.5t-54.5 -113.5q0 -45 21 -77t55 -50t74.5 -32.5t81.5 -29.5t75 -35t55 -56t21 -85q0 -92 -64 -143t-156 -51q-138 0 -212 91l25 25q79 -82 187 -82q75 0 128.5 43t53.5 115q0 51 -28.5 85.5t-70.5 51t-92 35.5t-92 38
t-70.5 59t-28.5 97q0 88 64.5 138t155.5 50q124 0 186 -81z" />
    <glyph glyph-name="T" unicode="T" horiz-adv-x="549" 
d="M293 674v-674h-37v674h-240v34h517v-34h-240z" />
    <glyph glyph-name="U" unicode="U" horiz-adv-x="725" 
d="M363 -19q-74 0 -128 23.5t-83.5 65t-43.5 90.5t-14 107v441h38v-436q0 -37 5.5 -70t20.5 -68.5t40 -61t67 -42t98 -16.5q54 0 96 16t67 41t41 60.5t21.5 69t5.5 71.5v436h37v-441q0 -58 -14 -107t-43.5 -90.5t-83.5 -65t-127 -23.5z" />
    <glyph glyph-name="V" unicode="V" horiz-adv-x="611" 
d="M54 708l249 -665h2l253 665h40l-270 -708h-47l-268 708h41z" />
    <glyph glyph-name="W" unicode="W" horiz-adv-x="961" 
d="M63 708l195 -664h3l193 664h50l197 -664h2l195 664h39l-211 -708h-49l-197 663h-2l-194 -663h-49l-211 708h39z" />
    <glyph glyph-name="X" unicode="X" horiz-adv-x="608" 
d="M97 708l208 -309l206 309h44l-228 -337l253 -371h-46l-230 343l-230 -343h-46l253 371l-229 337h45z" />
    <glyph glyph-name="Y" unicode="Y" horiz-adv-x="558" 
d="M298 308v-308h-38v308l-250 400h46l224 -366l224 366h43z" />
    <glyph glyph-name="Z" unicode="Z" horiz-adv-x="587" 
d="M538 708v-39l-450 -635h461v-34h-502v37l452 637h-440v34h479z" />
    <glyph glyph-name="bracketleft" unicode="[" horiz-adv-x="300" 
d="M220 732v-30h-111v-828h111v-30h-147v888h147z" />
    <glyph glyph-name="backslash" unicode="\" horiz-adv-x="370" 
d="M323 -16l-306 733l31 11l306 -733z" />
    <glyph glyph-name="bracketright" unicode="]" horiz-adv-x="300" 
d="M80 -156v30h111v828h-111v30h147v-888h-147z" />
    <glyph glyph-name="asciicircum" unicode="^" horiz-adv-x="666" 
d="M92 252l225 456h32l225 -456h-33l-208 425l-208 -425h-33z" />
    <glyph glyph-name="underscore" unicode="_" horiz-adv-x="500" 
d="M0 -117v29h500v-29h-500z" />
    <glyph glyph-name="grave" unicode="`" horiz-adv-x="240" 
d="M128 564l-117 144h47l102 -144h-32z" />
    <glyph glyph-name="a" unicode="a" horiz-adv-x="519" 
d="M219 -13q-63 0 -109.5 34t-46.5 101q0 153 264 153h66v30q0 70 -37 105t-104 35q-80 0 -140 -55l-20 26q66 60 162 60q81 0 127.5 -42.5t46.5 -126.5v-203q0 -64 8 -104h-34q-7 44 -7 99h-3q-22 -56 -68 -84t-105 -28zM225 17q86 0 127 59t41 143v27h-56
q-238 0 -238 -123q0 -54 38 -80t88 -26z" />
    <glyph glyph-name="b" unicode="b" horiz-adv-x="629" 
d="M138 110h-3v-110h-36v756h36v-405h3q29 61 82 93t116 32q103 0 168 -69.5t65 -175.5q0 -105 -65.5 -174.5t-167.5 -69.5q-63 0 -118 32.5t-80 90.5zM532 231q0 89 -54.5 151.5t-144.5 62.5q-85 0 -142 -62.5t-57 -151.5q0 -88 57 -150.5t142 -62.5q90 0 144.5 61.5
t54.5 151.5z" />
    <glyph glyph-name="c" unicode="c" horiz-adv-x="486" 
d="M454 410l-25 -23q-50 58 -130 58q-90 0 -145.5 -62t-55.5 -152t55.5 -151t145.5 -61q81 0 137 54l22 -22q-63 -64 -159 -64q-105 0 -172 68.5t-67 175.5q0 106 67 175.5t172 69.5q95 0 155 -66z" />
    <glyph glyph-name="d" unicode="d" horiz-adv-x="629" 
d="M494 110h-2q-29 -59 -82.5 -91t-115.5 -32q-103 0 -168.5 69.5t-65.5 174.5t65.5 175t168.5 70q63 0 116 -32t82 -93h2v405h36v-756h-36v110zM98 231q0 -90 54 -151.5t144 -61.5q85 0 142 62.5t57 150.5q0 89 -57 151.5t-142 62.5q-90 0 -144 -62t-54 -152z" />
    <glyph glyph-name="e" unicode="e" horiz-adv-x="561" 
d="M98 259h367q-2 83 -51.5 134.5t-129.5 51.5q-85 0 -134 -60.5t-52 -125.5zM293 -13q-102 0 -167.5 70t-65.5 178q0 104 64.5 172.5t159.5 68.5q103 0 160 -66t57 -159q0 -3 -0.5 -11t-0.5 -11h-403q0 -86 52.5 -148.5t143.5 -62.5q99 0 165 82l25 -21q-72 -92 -190 -92z
" />
    <glyph glyph-name="f" unicode="f" horiz-adv-x="286" 
d="M274 462v-30h-120v-432h-36v432h-98v30h97v154q0 79 36.5 115.5t95.5 36.5q28 0 49 -6l-6 -31q-21 6 -43 6q-51 0 -73 -34.5t-22 -88.5v-152h120z" />
    <glyph glyph-name="g" unicode="g" horiz-adv-x="628" 
d="M85 -158l24 24q77 -81 187 -81q106 0 152 65.5t46 170.5v93h-2q-27 -59 -81 -91.5t-117 -32.5q-103 0 -168.5 68.5t-65.5 173.5q0 104 65.5 174t168.5 70q62 0 115.5 -33t82.5 -92h2v111h36v-443q0 -53 -11.5 -98t-37 -84t-73.5 -61.5t-113 -22.5q-129 0 -210 89zM98 232
q0 -88 54 -149.5t144 -61.5q86 0 142.5 61.5t56.5 150.5q0 88 -57 150t-142 62q-90 0 -144 -62t-54 -151z" />
    <glyph glyph-name="h" unicode="h" horiz-adv-x="573" 
d="M135 355h2q20 55 68.5 88t105.5 33q87 0 128 -55t41 -140v-281h-36v271q0 34 -6.5 62.5t-21 55t-43 41.5t-68.5 15q-73 0 -121.5 -59t-48.5 -167v-219h-36v756h36v-401z" />
    <glyph glyph-name="i" unicode="i" horiz-adv-x="233" 
d="M135 462v-462h-36v462h36zM147 656q0 -14 -9 -23.5t-21 -9.5q-13 0 -22 9.5t-9 23.5t9.5 23t21.5 9t21 -9t9 -23z" />
    <glyph glyph-name="j" unicode="j" horiz-adv-x="234" 
d="M-20 -236l6 30q15 -4 30 -4q22 0 38 7t24.5 16.5t13.5 26.5t6 31t1 35v556h36v-558q0 -72 -25.5 -108.5t-92.5 -36.5q-17 0 -37 5zM148 656q0 -14 -9.5 -23.5t-21.5 -9.5q-13 0 -22 9.5t-9 23.5t9.5 23t21.5 9t21.5 -9t9.5 -23z" />
    <glyph glyph-name="k" unicode="k" horiz-adv-x="465" 
d="M135 756v-505h2l231 211h52l-241 -213l267 -249h-53l-256 244h-2v-244h-36v756h36z" />
    <glyph glyph-name="l" unicode="l" horiz-adv-x="234" 
d="M135 756v-756h-36v756h36z" />
    <glyph glyph-name="m" unicode="m" horiz-adv-x="887" 
d="M100 0v350q0 76 -4 112h35q4 -32 4 -108h2q20 56 65 89t99 33q117 0 154 -128q21 62 66 95t106 33q87 0 127 -56t40 -145v-275h-36v266q0 76 -31.5 127.5t-102.5 51.5q-72 0 -116.5 -58t-44.5 -151v-236h-37v275q0 82 -32.5 126t-95.5 44q-68 0 -114.5 -58.5
t-46.5 -161.5v-225h-37z" />
    <glyph glyph-name="n" unicode="n" horiz-adv-x="575" 
d="M96 462h35q4 -32 4 -108h2q20 56 68 89t105 33q87 0 129.5 -55.5t42.5 -139.5v-281h-36v271q0 73 -32 123.5t-107 50.5q-72 0 -121 -57t-49 -155v-233h-37v350q0 76 -4 112z" />
    <glyph glyph-name="o" unicode="o" horiz-adv-x="607" 
d="M547 232q0 -106 -68.5 -175.5t-175.5 -69.5q-106 0 -174.5 69.5t-68.5 175.5q0 107 68.5 175.5t174.5 68.5q107 0 175.5 -68.5t68.5 -175.5zM509 232q0 91 -56.5 152t-149.5 61q-94 0 -149.5 -61t-55.5 -152t56 -152.5t149 -61.5t149.5 62t56.5 152z" />
    <glyph glyph-name="p" unicode="p" horiz-adv-x="629" 
d="M135 110v-350h-37v702h37v-111h3q28 61 81 93t116 32q104 0 169 -69.5t65 -175.5q0 -105 -65.5 -174.5t-168.5 -69.5q-62 0 -117 32.5t-80 90.5h-3zM531 231q0 89 -54.5 151.5t-143.5 62.5q-85 0 -142.5 -62.5t-57.5 -151.5q0 -88 57.5 -150.5t142.5 -62.5
q89 0 143.5 61.5t54.5 151.5z" />
    <glyph glyph-name="q" unicode="q" horiz-adv-x="629" 
d="M494 110h-3q-27 -58 -80.5 -90.5t-116.5 -32.5q-103 0 -168.5 69.5t-65.5 174.5q0 106 65 175.5t169 69.5q63 0 116 -32t81 -93h3v111h36v-702h-36v350zM98 231q0 -90 54 -151.5t144 -61.5q85 0 142 62.5t57 150.5q0 89 -57 151.5t-142 62.5q-90 0 -144 -62t-54 -152z
" />
    <glyph glyph-name="r" unicode="r" horiz-adv-x="330" 
d="M100 0v350q0 76 -4 112h35q4 -32 4 -108h2q20 60 61.5 91t94.5 31q21 0 27 -2l-3 -33q-14 2 -24 2q-74 0 -115 -61t-41 -154v-228h-37z" />
    <glyph glyph-name="s" unicode="s" horiz-adv-x="424" 
d="M361 404l-27 -20q-40 61 -120 61q-43 0 -77.5 -23t-34.5 -70q0 -40 28 -61t96 -37q73 -19 110 -47t37 -83q0 -65 -45.5 -100.5t-112.5 -35.5q-112 0 -169 81l29 21q50 -71 140 -71q49 0 85.5 26.5t36.5 75.5q0 21 -8.5 37.5t-19.5 26.5t-32.5 19t-36 13t-41.5 11
q-5 1 -8 2q-63 16 -94 44t-31 78q0 59 44 91.5t105 32.5q99 0 146 -72z" />
    <glyph glyph-name="t" unicode="t" horiz-adv-x="308" 
d="M284 462v-30h-134v-324q0 -86 80 -86q28 0 53 11l3 -31q-33 -12 -64 -12q-50 0 -79 28.5t-29 83.5v330h-99v30h98v135h37v-135h134z" />
    <glyph glyph-name="u" unicode="u" horiz-adv-x="575" 
d="M478 0h-36q-4 35 -4 108h-2q-19 -55 -68.5 -88t-106.5 -33q-87 0 -128 55t-41 140v280h36v-270q0 -75 31.5 -125t106.5 -50q73 0 122 58t49 161v226h36v-350q0 -67 5 -112z" />
    <glyph glyph-name="v" unicode="v" horiz-adv-x="451" 
d="M429 462l-180 -462h-43l-184 462h40l165 -425h2l161 425h39z" />
    <glyph glyph-name="w" unicode="w" horiz-adv-x="713" 
d="M32 462h38l122 -420h2l141 420h42l142 -420h2l122 420h38l-139 -462h-43l-143 418h-2l-141 -418h-43z" />
    <glyph glyph-name="x" unicode="x" horiz-adv-x="462" 
d="M24 0l183 243l-163 219h46l140 -194l140 194h45l-163 -218l186 -244h-48l-161 218l-160 -218h-45z" />
    <glyph glyph-name="y" unicode="y" horiz-adv-x="447" 
d="M73 -241q-27 0 -47 6l6 33q18 -7 41 -7q62 0 94 87l42 113l-187 471h40l166 -431l158 431h39l-230 -604q-19 -50 -47.5 -74.5t-74.5 -24.5z" />
    <glyph glyph-name="z" unicode="z" horiz-adv-x="439" 
d="M383 462v-30l-296 -401h307v-31h-351v29l299 403h-283v30h324z" />
    <glyph glyph-name="braceleft" unicode="{" horiz-adv-x="300" 
d="M0 273v30q78 0 78 114v190q0 125 106 125h52v-30h-47q-76 0 -76 -99v-190q0 -60 -22 -90t-52 -34v-2q30 -4 52 -34t22 -90v-190q0 -99 76 -99h47v-30h-52q-106 0 -106 125v190q0 114 -78 114z" />
    <glyph glyph-name="bar" unicode="|" horiz-adv-x="222" 
d="M94 750h34v-1000h-34v1000z" />
    <glyph glyph-name="braceright" unicode="}" horiz-adv-x="300" 
d="M300 303v-30q-78 0 -78 -114v-190q0 -125 -106 -125h-52v30h47q76 0 76 99v190q0 60 22 90t52 34v2q-30 4 -52 34t-22 90v190q0 99 -76 99h-47v30h52q106 0 106 -125v-190q0 -114 78 -114z" />
    <glyph glyph-name="asciitilde" unicode="~" horiz-adv-x="666" 
d="M552 360l24 -23q-58 -91 -133 -91q-50 0 -104 35q-42 28 -64 37.5t-48 9.5q-64 0 -111 -82l-24 22q57 93 133 93q52 0 103 -35q68 -47 114 -47q59 0 110 81z" />
    <glyph glyph-name="uni00A0" unicode="&#xa0;" horiz-adv-x="250" 
 />
    <glyph glyph-name="exclamdown" unicode="&#xa1;" horiz-adv-x="292" 
d="M165 290v-514h-38v514h38zM179 456q0 -15 -9.5 -25t-23.5 -10t-23.5 10t-9.5 25q0 14 9.5 24t23.5 10t23.5 -10t9.5 -24z" />
    <glyph glyph-name="cent" unicode="&#xa2;" horiz-adv-x="566" 
d="M300 20v423q-79 -8 -128 -68.5t-49 -143.5t48.5 -143t128.5 -68zM330 443v-424q78 5 125 55l27 -22q-58 -62 -152 -64v-60h-30v60q-95 6 -155 74.5t-60 168.5t59.5 167.5t155.5 75.5v66h30v-65q92 -5 151 -67l-29 -23q-47 56 -122 58z" />
    <glyph glyph-name="sterling" unicode="&#xa3;" horiz-adv-x="566" 
d="M389 384v-32h-169v-320h258v-32h-402v32h107v320h-98v32h98v123q0 99 47.5 159t142.5 60q79 0 130 -48l-24 -27q-42 42 -107 42q-80 0 -116 -53.5t-36 -136.5v-119h169z" />
    <glyph glyph-name="currency" unicode="&#xa4;" horiz-adv-x="819" 
d="M691 562l-90 -90q55 -68 55 -162q0 -99 -59 -168q6 -8 46 -48t48 -46q-3 -2 -13 -13t-11 -12l-95 95q-68 -57 -162 -57q-97 0 -162 59l-97 -97q-13 16 -24 25l96 96q-57 68 -57 166q0 95 54 161q-5 4 -46.5 45.5t-46.5 45.5q5 4 25 24l91 -91q67 61 167 61t166 -60l90 90
l12 -12t13 -12zM410 522q-93 0 -150 -61t-57 -151q0 -91 57 -153t150 -62q94 0 151 62t57 153q0 90 -57 151t-151 61z" />
    <glyph glyph-name="yen" unicode="&#xa5;" horiz-adv-x="566" 
d="M83 223h182v123h-182v30h170l-232 332h46l217 -321l217 321h44l-230 -332h168v-30h-182v-123h182v-30h-182v-193h-36v193h-182v30z" />
    <glyph glyph-name="brokenbar" unicode="&#xa6;" horiz-adv-x="222" 
d="M96 675h30v-337h-30v337zM96 165h30v-337h-30v337z" />
    <glyph glyph-name="section" unicode="&#xa7;" horiz-adv-x="566" 
d="M454 655l-30 -20q-36 61 -126 61q-55 0 -95.5 -31.5t-40.5 -86.5q0 -62 61 -96q13 -8 59 -28l49 -21q67 -28 100 -61t33 -85q0 -57 -35 -92t-87 -46q48 -22 72.5 -52.5t24.5 -76.5q0 -72 -51 -113t-127 -41q-115 0 -176 83l32 21q47 -71 145 -71q58 0 99 30t41 88
q0 44 -30 71t-87 50l-64 29q-67 30 -94.5 58.5t-27.5 85.5q0 54 36.5 89.5t85.5 46.5q-47 22 -71 50.5t-24 79.5q0 71 50 110.5t124 39.5q111 0 154 -72zM303 408l-47 19q-50 -7 -85.5 -35.5t-35.5 -81.5q0 -26 8.5 -44.5t30 -33.5t35.5 -22t48 -21l51 -21q49 4 84 33.5
t35 80.5q0 48 -31.5 74.5t-92.5 51.5z" />
    <glyph glyph-name="dieresis" unicode="&#xa8;" horiz-adv-x="240" 
d="M5 655q0 14 9.5 23.5t22.5 9.5q14 0 23 -9.5t9 -23.5t-9.5 -23.5t-22.5 -9.5t-22.5 9.5t-9.5 23.5zM171 655q0 14 9 23.5t23 9.5q13 0 22.5 -9.5t9.5 -23.5t-9.5 -23.5t-22.5 -9.5q-14 0 -23 9.5t-9 23.5z" />
    <glyph glyph-name="copyright" unicode="&#xa9;" horiz-adv-x="800" 
d="M538 214l26 -20q-56 -66 -149 -66q-96 0 -157.5 63t-61.5 162q0 98 62 162t157 64q42 0 81 -17t64 -47l-28 -22q-47 54 -117 54q-81 0 -132 -57t-51 -137t50.5 -136t132.5 -56q76 0 123 53zM20 353q0 157 111.5 267t269.5 110q157 0 268 -110t111 -267
q0 -156 -111 -265.5t-268 -109.5q-158 0 -269.5 109t-111.5 266zM54 353q0 -142 101.5 -242t245.5 -100q143 0 244 100t101 242q0 143 -101 243.5t-244 100.5q-144 0 -245.5 -100.5t-101.5 -243.5z" />
    <glyph glyph-name="ordfeminine" unicode="&#xaa;" horiz-adv-x="353" 
d="M259 605v10q0 39 -22 59t-62 20q-58 0 -95 -37l-17 22q43 41 114 41q54 0 83.5 -27t29.5 -77v-124q0 -36 5 -61h-30q-5 25 -5 57h-1q-35 -64 -112 -64q-39 0 -70 21.5t-31 64.5q0 30 17.5 50t50.5 29.5t66 12.5t79 3zM259 580h-15q-37 0 -63 -2.5t-51.5 -9t-38.5 -21.5
t-13 -37q0 -31 22.5 -45t54.5 -14q49 0 76.5 30t27.5 76v23z" />
    <glyph glyph-name="guillemotleft" unicode="&#xab;" horiz-adv-x="481" 
d="M226 420l-114 -182l115 -182l-26 -19l-128 201l127 200zM397 420l-114 -182l115 -182l-26 -19l-128 201l127 200z" />
    <glyph glyph-name="logicalnot" unicode="&#xac;" horiz-adv-x="666" 
d="M578 402v-269h-34v237h-455v32h489z" />
    <glyph glyph-name="uni00AD" unicode="&#xad;" horiz-adv-x="306" 
d="M250 266v-31h-194v31h194z" />
    <glyph glyph-name="registered" unicode="&#xae;" horiz-adv-x="600" 
d="M72 494q0 94 67 160t162 66q94 0 160.5 -66t66.5 -160t-66.5 -159.5t-160.5 -65.5q-95 0 -162 65.5t-67 159.5zM98 494q0 -83 59.5 -142.5t143.5 -59.5q83 0 142 59.5t59 142.5t-59 142t-142 59q-84 0 -143.5 -59t-59.5 -142zM220 369v253h86q40 0 63 -18t23 -54
q0 -29 -18.5 -47t-46.5 -21l75 -113h-35l-70 110h-48v-110h-29zM249 502h44q70 0 70 49q0 46 -58 46h-56v-95z" />
    <glyph glyph-name="macron" unicode="&#xaf;" horiz-adv-x="240" 
d="M242 645v-30h-244v30h244z" />
    <glyph glyph-name="degree" unicode="&#xb0;" horiz-adv-x="400" 
d="M346 571q0 -61 -42 -103.5t-104 -42.5t-104 42.5t-42 103.5t42 103.5t104 42.5t104 -42.5t42 -103.5zM318 571q0 48 -35 83t-83 35t-83 -35t-35 -83t35 -83t83 -35t83 35t35 83z" />
    <glyph glyph-name="plusminus" unicode="&#xb1;" horiz-adv-x="666" 
d="M89 344v32h225v184h34v-184h230v-32h-230v-180h-33v180h-226zM92 48v32h483v-32h-483z" />
    <glyph glyph-name="twosuperior" unicode="&#xb2;" 
d="M304 482v-29h-257v31l158 169q64 69 64 118q0 39 -24 61t-62 22q-73 0 -92 -74l-32 7q11 47 44.5 71.5t79.5 24.5q55 0 87.5 -30t32.5 -79q0 -38 -17.5 -68t-62.5 -78l-137 -146h218z" />
    <glyph glyph-name="threesuperior" unicode="&#xb3;" 
d="M166 443q-90 0 -127 78l30 11q27 -60 97 -60q45 0 71 25t26 69q0 45 -33.5 69t-79.5 24h-20v28h19q47 0 73.5 24.5t26.5 62.5t-24 59.5t-59 21.5q-55 0 -82 -45l-26 15q37 58 108 58q54 0 84.5 -28.5t30.5 -79.5q0 -40 -21.5 -65.5t-58.5 -34.5q0 -1 -1 -2q45 -8 70 -36
t25 -71q0 -58 -36.5 -90.5t-92.5 -32.5z" />
    <glyph glyph-name="acute" unicode="&#xb4;" horiz-adv-x="240" 
d="M229 708l-117 -144h-32l102 144h47z" />
    <glyph glyph-name="mu" unicode="&#xb5;" horiz-adv-x="556" 
d="M87 -228v690h36v-270q0 -174 139 -174q72 0 121 57.5t49 153.5v233h35v-350q0 -16 2 -57.5t2 -54.5h-38v107h-2q-21 -55 -69.5 -87.5t-105.5 -32.5q-92 0 -133 68v-283h-36z" />
    <glyph glyph-name="paragraph" unicode="&#xb6;" horiz-adv-x="600" 
d="M496 708v-834h-35v806h-146v-806h-35v459q-95 0 -154 52.5t-59 128.5q0 94 58.5 144t165.5 50h205z" />
    <glyph glyph-name="periodcentered" unicode="&#xb7;" horiz-adv-x="246" 
d="M156 273q0 -14 -9.5 -24t-23.5 -10t-23 10t-9 24t9 24t23 10t23.5 -10t9.5 -24z" />
    <glyph glyph-name="cedilla" unicode="&#xb8;" horiz-adv-x="240" 
d="M143 0l-55 -83q21 7 48 7q35 0 60 -17t25 -52q0 -44 -34.5 -63t-79.5 -19q-46 0 -91 20l8 23q35 -17 82 -17q33 0 57.5 13t24.5 43q0 47 -66 47q-37 0 -61 -13l-13 11l67 100h28z" />
    <glyph glyph-name="onesuperior" unicode="&#xb9;" 
d="M204 874v-421h-34v382l-86 -62l-21 24l110 77h31z" />
    <glyph glyph-name="ordmasculine" unicode="&#xba;" horiz-adv-x="353" 
d="M322 573q0 -65 -40.5 -107t-104.5 -42t-105 42t-41 107t41 106.5t105 41.5t104.5 -41.5t40.5 -106.5zM290 573q0 52 -30.5 86.5t-82.5 34.5t-83 -34.5t-31 -86.5t31 -87.5t83 -35.5t82.5 35.5t30.5 87.5z" />
    <glyph glyph-name="guillemotright" unicode="&#xbb;" horiz-adv-x="481" 
d="M255 56l114 182l-114 182l25 19l129 -201l-128 -200zM84 56l114 182l-114 182l25 19l129 -201l-128 -200z" />
    <glyph glyph-name="onequarter" unicode="&#xbc;" horiz-adv-x="812" 
d="M687 424v-291h65v-29h-65v-104h-31v104h-193v31l182 289h42zM656 383h-3l-157 -250h160v250zM204 708v-421h-34v382l-86 -62l-21 24l110 77h31zM629 721l-443 -749l-27 16l443 749z" />
    <glyph glyph-name="onehalf" unicode="&#xbd;" horiz-adv-x="812" 
d="M745 29v-29h-257v31l158 169q64 67 64 118q0 39 -24 61t-63 22q-72 0 -91 -74l-32 7q11 46 44.5 71t78.5 25q56 0 88.5 -30t32.5 -78q0 -39 -16.5 -69t-62.5 -77l-137 -147h217zM629 721l-443 -749l-27 16l443 749zM204 708v-421h-34v382l-86 -62l-21 24l123 77h18z" />
    <glyph glyph-name="threequarters" unicode="&#xbe;" horiz-adv-x="812" 
d="M656 0v104h-193v31l182 289h42v-291h65v-29h-65v-104h-31zM166 280q-90 0 -127 78l30 11q27 -60 97 -60q45 0 71 25t26 69q0 45 -33.5 69t-79.5 24h-20v28h19q47 0 73.5 24.5t26.5 62.5t-24 59.5t-59 21.5q-55 0 -82 -45l-26 15q37 58 108 58q54 0 84.5 -28.5t30.5 -79.5
q0 -81 -81 -100v-2q45 -8 70 -36t25 -71q0 -58 -36.5 -90.5t-92.5 -32.5zM496 133h160v250h-3zM629 721l-443 -749l-27 16l443 749z" />
    <glyph glyph-name="questiondown" unicode="&#xbf;" horiz-adv-x="475" 
d="M219 242v44h37v-55q0 -45 -20 -80t-74 -80q-41 -33 -59 -63t-18 -75q0 -66 42.5 -103t107.5 -37q63 0 104 37.5t50 98.5l36 -6q-14 -77 -66 -120t-127 -43q-80 0 -132.5 45.5t-52.5 125.5q0 57 22.5 91t68.5 72q49 40 65 69t16 79zM201 456q0 14 9.5 24t23.5 10t23 -10
t9 -24q0 -15 -9 -25t-23 -10t-23.5 10t-9.5 25z" />
    <glyph glyph-name="Agrave" unicode="&#xc0;" horiz-adv-x="677" 
d="M140 198l-83 -198h-41l306 708h41l298 -708h-41l-82 198h-398zM341 674l-187 -443h370zM329 764l-117 144h47l102 -144h-32z" />
    <glyph glyph-name="Aacute" unicode="&#xc1;" horiz-adv-x="677" 
d="M140 198l-83 -198h-41l306 708h41l298 -708h-41l-82 198h-398zM341 674l-187 -443h370zM472 908l-117 -144h-32l102 144h47z" />
    <glyph glyph-name="Acircumflex" unicode="&#xc2;" horiz-adv-x="677" 
d="M140 198l-83 -198h-41l306 708h41l298 -708h-41l-82 198h-398zM341 674l-187 -443h370zM364 908l105 -144h-36l-91 125l-91 -125h-36l105 144h44z" />
    <glyph glyph-name="Atilde" unicode="&#xc3;" horiz-adv-x="677" 
d="M140 198l-83 -198h-41l306 708h41l298 -708h-41l-82 198h-398zM341 674l-187 -443h370zM235 787h-24q12 81 67 81q26 0 67 -24q40 -24 61 -24q35 0 43 49h25q-11 -79 -68 -79q-26 0 -66 24q-39 24 -62 24q-31 0 -43 -51z" />
    <glyph glyph-name="Adieresis" unicode="&#xc4;" horiz-adv-x="677" 
d="M140 198l-83 -198h-41l306 708h41l298 -708h-41l-82 198h-398zM341 674l-187 -443h370zM227 855q0 14 9.5 23.5t22.5 9.5q14 0 23 -9.5t9 -23.5t-9.5 -23.5t-22.5 -9.5t-22.5 9.5t-9.5 23.5zM393 855q0 14 9 23.5t23 9.5q13 0 22.5 -9.5t9.5 -23.5t-9.5 -23.5t-22.5 -9.5
q-14 0 -23 9.5t-9 23.5z" />
    <glyph glyph-name="Aring" unicode="&#xc5;" horiz-adv-x="677" 
d="M140 198l-83 -198h-41l306 708h41l298 -708h-41l-82 198h-398zM341 674l-187 -443h370zM438 850q0 -40 -28.5 -67.5t-67.5 -27.5t-67.5 27.5t-28.5 67.5q0 39 28.5 67t67.5 28t67.5 -28t28.5 -67zM414 850q0 30 -21 51t-51 21t-51 -21t-21 -51t21 -51t51 -21t51 21t21 51
z" />
    <glyph glyph-name="AE" unicode="&#xc6;" horiz-adv-x="975" 
d="M537 351v-317h382v-34h-419v204h-307l-133 -204h-43l460 708h427v-34h-367v-290h343v-33h-343zM213 237h287v437h-5z" />
    <glyph glyph-name="Ccedilla" unicode="&#xc7;" horiz-adv-x="723" 
d="M659 117l28 -22q-41 -53 -107.5 -83t-144.5 -31l-42 -64q21 7 48 7q35 0 60 -17t25 -52q0 -44 -34.5 -63t-79.5 -19q-46 0 -91 20l8 23q35 -17 82 -17q33 0 57.5 13t24.5 43q0 47 -66 47q-37 0 -61 -13l-13 11l55 82q-151 8 -246 112t-95 260q0 162 102.5 267.5
t261.5 105.5q71 0 134.5 -25t104.5 -72l-27 -25q-35 41 -93 64.5t-119 23.5q-144 0 -234.5 -97.5t-90.5 -241.5q0 -143 90 -241t235 -98q67 0 128.5 26t99.5 76z" />
    <glyph glyph-name="Egrave" unicode="&#xc8;" horiz-adv-x="591" 
d="M139 351v-317h398v-34h-435v708h421v-34h-384v-290h360v-33h-360zM316 764l-117 144h47l102 -144h-32z" />
    <glyph glyph-name="Eacute" unicode="&#xc9;" horiz-adv-x="591" 
d="M139 351v-317h398v-34h-435v708h421v-34h-384v-290h360v-33h-360zM429 908l-117 -144h-32l102 144h47z" />
    <glyph glyph-name="Ecircumflex" unicode="&#xca;" horiz-adv-x="591" 
d="M139 351v-317h398v-34h-435v708h421v-34h-384v-290h360v-33h-360zM337 908l105 -144h-36l-91 125l-91 -125h-36l105 144h44z" />
    <glyph glyph-name="Edieresis" unicode="&#xcb;" horiz-adv-x="591" 
d="M139 351v-317h398v-34h-435v708h421v-34h-384v-290h360v-33h-360zM201 855q0 14 9.5 23.5t22.5 9.5q14 0 23 -9.5t9 -23.5t-9.5 -23.5t-22.5 -9.5t-22.5 9.5t-9.5 23.5zM367 855q0 14 9 23.5t23 9.5q13 0 22.5 -9.5t9.5 -23.5t-9.5 -23.5t-22.5 -9.5q-14 0 -23 9.5
t-9 23.5z" />
    <glyph glyph-name="Igrave" unicode="&#xcc;" horiz-adv-x="242" 
d="M140 708v-708h-38v708h38zM108 764l-117 144h47l102 -144h-32z" />
    <glyph glyph-name="Iacute" unicode="&#xcd;" horiz-adv-x="242" 
d="M140 708v-708h-38v708h38zM250 908l-117 -144h-32l102 144h47z" />
    <glyph glyph-name="Icircumflex" unicode="&#xce;" horiz-adv-x="242" 
d="M140 708v-708h-38v708h38zM142 908l105 -144h-36l-91 125l-91 -125h-36l105 144h44z" />
    <glyph glyph-name="Idieresis" unicode="&#xcf;" horiz-adv-x="242" 
d="M140 708v-708h-38v708h38zM6 855q0 14 9.5 23.5t22.5 9.5q14 0 23 -9.5t9 -23.5t-9.5 -23.5t-22.5 -9.5t-22.5 9.5t-9.5 23.5zM172 855q0 14 9 23.5t23 9.5q13 0 22.5 -9.5t9.5 -23.5t-9.5 -23.5t-22.5 -9.5q-14 0 -23 9.5t-9 23.5z" />
    <glyph glyph-name="Eth" unicode="&#xd0;" horiz-adv-x="766" 
d="M100 0v355h-78v30h78v323h211q79 0 147.5 -21.5t122 -63.5t84.5 -111t31 -158q0 -88 -31 -157t-84.5 -111.5t-122 -64t-147.5 -21.5h-211zM138 355v-321h163q162 0 258.5 84t96.5 236t-96.5 236t-258.5 84h-163v-289h265v-30h-265z" />
    <glyph glyph-name="Ntilde" unicode="&#xd1;" horiz-adv-x="773" 
d="M152 708l479 -656h2v656h38v-708h-50l-479 658h-2v-658h-38v708h50zM283 787h-24q12 81 67 81q26 0 67 -24q40 -24 61 -24q35 0 43 49h25q-11 -79 -68 -79q-26 0 -66 24q-39 24 -62 24q-31 0 -43 -51z" />
    <glyph glyph-name="Ograve" unicode="&#xd2;" horiz-adv-x="865" 
d="M798 354q0 -162 -104 -267.5t-261 -105.5q-158 0 -262 105.5t-104 267.5t104 267.5t262 105.5t261.5 -105.5t103.5 -267.5zM759 354q0 143 -91 241.5t-235 98.5t-235.5 -98.5t-91.5 -241.5t91 -241t236 -98t235.5 98t90.5 241zM448 764l-117 144h47l102 -144h-32z" />
    <glyph glyph-name="Oacute" unicode="&#xd3;" horiz-adv-x="865" 
d="M798 354q0 -162 -104 -267.5t-261 -105.5q-158 0 -262 105.5t-104 267.5t104 267.5t262 105.5t261.5 -105.5t103.5 -267.5zM759 354q0 143 -91 241.5t-235 98.5t-235.5 -98.5t-91.5 -241.5t91 -241t236 -98t235.5 98t90.5 241zM546 908l-117 -144h-32l102 144h47z" />
    <glyph glyph-name="Ocircumflex" unicode="&#xd4;" horiz-adv-x="865" 
d="M798 354q0 -162 -104 -267.5t-261 -105.5q-158 0 -262 105.5t-104 267.5t104 267.5t262 105.5t261.5 -105.5t103.5 -267.5zM759 354q0 143 -91 241.5t-235 98.5t-235.5 -98.5t-91.5 -241.5t91 -241t236 -98t235.5 98t90.5 241zM456 908l105 -144h-36l-91 125l-91 -125
h-36l105 144h44z" />
    <glyph glyph-name="Otilde" unicode="&#xd5;" horiz-adv-x="865" 
d="M798 354q0 -162 -104 -267.5t-261 -105.5q-158 0 -262 105.5t-104 267.5t104 267.5t262 105.5t261.5 -105.5t103.5 -267.5zM759 354q0 143 -91 241.5t-235 98.5t-235.5 -98.5t-91.5 -241.5t91 -241t236 -98t235.5 98t90.5 241zM327 787h-24q12 81 67 81q26 0 67 -24
q40 -24 61 -24q35 0 43 49h25q-11 -79 -68 -79q-26 0 -66 24q-39 24 -62 24q-31 0 -43 -51z" />
    <glyph glyph-name="Odieresis" unicode="&#xd6;" horiz-adv-x="865" 
d="M798 354q0 -162 -104 -267.5t-261 -105.5q-158 0 -262 105.5t-104 267.5t104 267.5t262 105.5t261.5 -105.5t103.5 -267.5zM759 354q0 143 -91 241.5t-235 98.5t-235.5 -98.5t-91.5 -241.5t91 -241t236 -98t235.5 98t90.5 241zM319 855q0 14 9.5 23.5t22.5 9.5
q14 0 23 -9.5t9 -23.5t-9.5 -23.5t-22.5 -9.5t-22.5 9.5t-9.5 23.5zM485 855q0 14 9 23.5t23 9.5q13 0 22.5 -9.5t9.5 -23.5t-9.5 -23.5t-22.5 -9.5q-14 0 -23 9.5t-9 23.5z" />
    <glyph glyph-name="multiply" unicode="&#xd7;" horiz-adv-x="666" 
d="M160 502l174 -173l173 173l22 -22l-173 -174l173 -173l-23 -22l-172 172l-173 -172l-23 22l174 173l-174 174z" />
    <glyph glyph-name="Oslash" unicode="&#xd8;" horiz-adv-x="865" 
d="M748 707l-69 -79q110 -107 110 -274q0 -162 -104 -267.5t-261 -105.5q-142 0 -241 85l-70 -79l-21 20l70 79q-104 104 -104 268q0 162 104 267.5t262 105.5q134 0 233 -79l70 79zM654 600l-446 -507q90 -79 216 -79q145 0 235.5 98.5t90.5 241.5q0 150 -96 246zM187 114
l446 507q-89 73 -209 73q-144 0 -235.5 -98.5t-91.5 -241.5q0 -147 90 -240z" />
    <glyph glyph-name="Ugrave" unicode="&#xd9;" horiz-adv-x="725" 
d="M363 -19q-74 0 -128 23.5t-83.5 65t-43.5 90.5t-14 107v441h38v-436q0 -37 5.5 -70t20.5 -68.5t40 -61t67 -42t98 -16.5q54 0 96 16t67 41t41 60.5t21.5 69t5.5 71.5v436h37v-441q0 -58 -14 -107t-43.5 -90.5t-83.5 -65t-127 -23.5zM373 764l-117 144h47l102 -144h-32z
" />
    <glyph glyph-name="Uacute" unicode="&#xda;" horiz-adv-x="725" 
d="M363 -19q-74 0 -128 23.5t-83.5 65t-43.5 90.5t-14 107v441h38v-436q0 -37 5.5 -70t20.5 -68.5t40 -61t67 -42t98 -16.5q54 0 96 16t67 41t41 60.5t21.5 69t5.5 71.5v436h37v-441q0 -58 -14 -107t-43.5 -90.5t-83.5 -65t-127 -23.5zM467 908l-117 -144h-32l102 144h47z
" />
    <glyph glyph-name="Ucircumflex" unicode="&#xdb;" horiz-adv-x="725" 
d="M363 -19q-74 0 -128 23.5t-83.5 65t-43.5 90.5t-14 107v441h38v-436q0 -37 5.5 -70t20.5 -68.5t40 -61t67 -42t98 -16.5q54 0 96 16t67 41t41 60.5t21.5 69t5.5 71.5v436h37v-441q0 -58 -14 -107t-43.5 -90.5t-83.5 -65t-127 -23.5zM385 908l105 -144h-36l-91 125
l-91 -125h-36l105 144h44z" />
    <glyph glyph-name="Udieresis" unicode="&#xdc;" horiz-adv-x="725" 
d="M363 -19q-74 0 -128 23.5t-83.5 65t-43.5 90.5t-14 107v441h38v-436q0 -37 5.5 -70t20.5 -68.5t40 -61t67 -42t98 -16.5q54 0 96 16t67 41t41 60.5t21.5 69t5.5 71.5v436h37v-441q0 -58 -14 -107t-43.5 -90.5t-83.5 -65t-127 -23.5zM248 855q0 14 9.5 23.5t22.5 9.5
q14 0 23 -9.5t9 -23.5t-9.5 -23.5t-22.5 -9.5t-22.5 9.5t-9.5 23.5zM414 855q0 14 9 23.5t23 9.5q13 0 22.5 -9.5t9.5 -23.5t-9.5 -23.5t-22.5 -9.5q-14 0 -23 9.5t-9 23.5z" />
    <glyph glyph-name="Yacute" unicode="&#xdd;" horiz-adv-x="558" 
d="M298 308v-308h-38v308l-250 400h46l224 -366l224 366h43zM409 908l-117 -144h-32l102 144h47z" />
    <glyph glyph-name="Thorn" unicode="&#xde;" horiz-adv-x="574" 
d="M102 0v708h38v-157h157q96 0 160.5 -43.5t64.5 -136.5q0 -88 -61 -137t-156 -49h-165v-185h-38zM140 518v-300h163q78 0 129 38t51 115q0 76 -52.5 111.5t-131.5 35.5h-159z" />
    <glyph glyph-name="germandbls" unicode="&#xdf;" horiz-adv-x="591" 
d="M134 537v-537h-36v540q0 99 50.5 163.5t150.5 64.5q82 0 134 -47t52 -127q0 -66 -35 -107.5t-95 -56.5v-2q79 -10 128.5 -65t49.5 -150q0 -101 -62 -162.5t-166 -61.5q-29 0 -50 4v32q25 -4 47 -4q89 0 141 52t52 141q0 96 -56.5 146.5t-147.5 50.5h-13v33h13
q70 0 114 38.5t44 110.5q0 67 -42 105t-108 38q-46 0 -79.5 -17t-51.5 -47t-26 -63t-8 -72z" />
    <glyph glyph-name="agrave" unicode="&#xe0;" horiz-adv-x="519" 
d="M219 -13q-63 0 -109.5 34t-46.5 101q0 153 264 153h66v30q0 70 -37 105t-104 35q-80 0 -140 -55l-20 26q66 60 162 60q81 0 127.5 -42.5t46.5 -126.5v-203q0 -64 8 -104h-34q-7 44 -7 99h-3q-22 -56 -68 -84t-105 -28zM225 17q86 0 127 59t41 143v27h-56
q-238 0 -238 -123q0 -54 38 -80t88 -26zM275 564l-117 144h47l102 -144h-32z" />
    <glyph glyph-name="aacute" unicode="&#xe1;" horiz-adv-x="519" 
d="M219 -13q-63 0 -109.5 34t-46.5 101q0 153 264 153h66v30q0 70 -37 105t-104 35q-80 0 -140 -55l-20 26q66 60 162 60q81 0 127.5 -42.5t46.5 -126.5v-203q0 -64 8 -104h-34q-7 44 -7 99h-3q-22 -56 -68 -84t-105 -28zM225 17q86 0 127 59t41 143v27h-56
q-238 0 -238 -123q0 -54 38 -80t88 -26zM376 708l-117 -144h-32l102 144h47z" />
    <glyph glyph-name="acircumflex" unicode="&#xe2;" horiz-adv-x="519" 
d="M219 -13q-63 0 -109.5 34t-46.5 101q0 153 264 153h66v30q0 70 -37 105t-104 35q-80 0 -140 -55l-20 26q66 60 162 60q81 0 127.5 -42.5t46.5 -126.5v-203q0 -64 8 -104h-34q-7 44 -7 99h-3q-22 -56 -68 -84t-105 -28zM225 17q86 0 127 59t41 143v27h-56
q-238 0 -238 -123q0 -54 38 -80t88 -26zM277 708l105 -144h-36l-91 125l-91 -125h-36l105 144h44z" />
    <glyph glyph-name="atilde" unicode="&#xe3;" horiz-adv-x="519" 
d="M219 -13q-63 0 -109.5 34t-46.5 101q0 153 264 153h66v30q0 70 -37 105t-104 35q-80 0 -140 -55l-20 26q66 60 162 60q81 0 127.5 -42.5t46.5 -126.5v-203q0 -64 8 -104h-34q-7 44 -7 99h-3q-22 -56 -68 -84t-105 -28zM225 17q86 0 127 59t41 143v27h-56
q-238 0 -238 -123q0 -54 38 -80t88 -26zM148 587h-24q12 81 67 81q27 0 67 -24t61 -24q35 0 43 49h25q-11 -79 -68 -79q-26 0 -66 24q-39 24 -62 24q-31 0 -43 -51z" />
    <glyph glyph-name="adieresis" unicode="&#xe4;" horiz-adv-x="519" 
d="M219 -13q-63 0 -109.5 34t-46.5 101q0 153 264 153h66v30q0 70 -37 105t-104 35q-80 0 -140 -55l-20 26q66 60 162 60q81 0 127.5 -42.5t46.5 -126.5v-203q0 -64 8 -104h-34q-7 44 -7 99h-3q-22 -56 -68 -84t-105 -28zM225 17q86 0 127 59t41 143v27h-56
q-238 0 -238 -123q0 -54 38 -80t88 -26zM141 655q0 14 9.5 23.5t22.5 9.5q14 0 23 -9.5t9 -23.5t-9.5 -23.5t-22.5 -9.5t-22.5 9.5t-9.5 23.5zM307 655q0 14 9 23.5t23 9.5q13 0 22.5 -9.5t9.5 -23.5t-9.5 -23.5t-22.5 -9.5q-14 0 -23 9.5t-9 23.5z" />
    <glyph glyph-name="aring" unicode="&#xe5;" horiz-adv-x="519" 
d="M219 -13q-63 0 -109.5 34t-46.5 101q0 153 264 153h66v30q0 70 -37 105t-104 35q-80 0 -140 -55l-20 26q66 60 162 60q81 0 127.5 -42.5t46.5 -126.5v-203q0 -64 8 -104h-34q-7 44 -7 99h-3q-22 -56 -68 -84t-105 -28zM225 17q86 0 127 59t41 143v27h-56
q-238 0 -238 -123q0 -54 38 -80t88 -26zM352 650q0 -40 -28.5 -67.5t-67.5 -27.5t-67.5 27.5t-28.5 67.5q0 39 28.5 67t67.5 28t67.5 -28t28.5 -67zM328 650q0 30 -21 51t-51 21t-51 -21t-21 -51t21 -51t51 -21t51 21t21 51z" />
    <glyph glyph-name="ae" unicode="&#xe6;" horiz-adv-x="876" 
d="M224 -13q-66 0 -113.5 32t-47.5 97q0 144 265 144h71v37q0 70 -37.5 109t-106.5 39q-79 0 -144 -55l-20 25q67 61 167 61q73 0 115.5 -33.5t51.5 -90.5q27 57 75.5 90.5t109.5 33.5q97 0 151.5 -65.5t54.5 -158.5v-23h-383q0 -84 49 -147t136 -63q100 0 156 82l25 -21
q-69 -93 -181 -93q-71 0 -123 37.5t-75 104.5q-15 -65 -65 -103.5t-131 -38.5zM228 17q89 0 130 48.5t41 122.5v41h-58q-51 0 -88.5 -4t-75 -15t-57.5 -34.5t-20 -59.5q0 -53 38 -76t90 -23zM434 260h346q-2 83 -48.5 134t-122.5 51q-79 0 -127 -61.5t-48 -123.5z" />
    <glyph glyph-name="ccedilla" unicode="&#xe7;" horiz-adv-x="486" 
d="M454 410l-25 -23q-50 58 -130 58q-90 0 -145.5 -62t-55.5 -152t55.5 -151t145.5 -61q81 0 137 54l22 -22q-55 -59 -150 -64l-46 -70q21 7 48 7q35 0 60 -17t25 -52q0 -44 -34.5 -63t-79.5 -19q-46 0 -91 20l8 23q35 -17 82 -17q33 0 57.5 13t24.5 43q0 47 -66 47
q-37 0 -61 -13l-13 11l58 88q-98 6 -159 73.5t-61 169.5q0 106 67 175.5t172 69.5q95 0 155 -66z" />
    <glyph glyph-name="egrave" unicode="&#xe8;" horiz-adv-x="561" 
d="M98 259h367q-2 83 -51.5 134.5t-129.5 51.5q-85 0 -134 -60.5t-52 -125.5zM293 -13q-102 0 -167.5 70t-65.5 178q0 104 64.5 172.5t159.5 68.5q103 0 160 -66t57 -159q0 -3 -0.5 -11t-0.5 -11h-403q0 -86 52.5 -148.5t143.5 -62.5q99 0 165 82l25 -21q-72 -92 -190 -92z
M291 564l-117 144h47l102 -144h-32z" />
    <glyph glyph-name="eacute" unicode="&#xe9;" horiz-adv-x="561" 
d="M98 259h367q-2 83 -51.5 134.5t-129.5 51.5q-85 0 -134 -60.5t-52 -125.5zM293 -13q-102 0 -167.5 70t-65.5 178q0 104 64.5 172.5t159.5 68.5q103 0 160 -66t57 -159q0 -3 -0.5 -11t-0.5 -11h-403q0 -86 52.5 -148.5t143.5 -62.5q99 0 165 82l25 -21q-72 -92 -190 -92z
M404 708l-117 -144h-32l102 144h47z" />
    <glyph glyph-name="ecircumflex" unicode="&#xea;" horiz-adv-x="561" 
d="M98 259h367q-2 83 -51.5 134.5t-129.5 51.5q-85 0 -134 -60.5t-52 -125.5zM293 -13q-102 0 -167.5 70t-65.5 178q0 104 64.5 172.5t159.5 68.5q103 0 160 -66t57 -159q0 -3 -0.5 -11t-0.5 -11h-403q0 -86 52.5 -148.5t143.5 -62.5q99 0 165 82l25 -21q-72 -92 -190 -92z
M312 708l105 -144h-36l-91 125l-91 -125h-36l105 144h44z" />
    <glyph glyph-name="edieresis" unicode="&#xeb;" horiz-adv-x="561" 
d="M98 259h367q-2 83 -51.5 134.5t-129.5 51.5q-85 0 -134 -60.5t-52 -125.5zM293 -13q-102 0 -167.5 70t-65.5 178q0 104 64.5 172.5t159.5 68.5q103 0 160 -66t57 -159q0 -3 -0.5 -11t-0.5 -11h-403q0 -86 52.5 -148.5t143.5 -62.5q99 0 165 82l25 -21q-72 -92 -190 -92z
M173 655q0 14 9.5 23.5t22.5 9.5q14 0 23 -9.5t9 -23.5t-9.5 -23.5t-22.5 -9.5t-22.5 9.5t-9.5 23.5zM339 655q0 14 9 23.5t23 9.5q13 0 22.5 -9.5t9.5 -23.5t-9.5 -23.5t-22.5 -9.5q-14 0 -23 9.5t-9 23.5z" />
    <glyph glyph-name="igrave" unicode="&#xec;" horiz-adv-x="233" 
d="M135 462v-462h-36v462h36zM103 564l-117 144h47l102 -144h-32z" />
    <glyph glyph-name="iacute" unicode="&#xed;" horiz-adv-x="233" 
d="M135 462v-462h-36v462h36zM247 708l-117 -144h-32l102 144h47z" />
    <glyph glyph-name="icircumflex" unicode="&#xee;" horiz-adv-x="233" 
d="M135 462v-462h-36v462h36zM140 708l105 -144h-36l-91 125l-91 -125h-36l105 144h44z" />
    <glyph glyph-name="idieresis" unicode="&#xef;" horiz-adv-x="233" 
d="M135 462v-462h-36v462h36zM3 655q0 14 9.5 23.5t22.5 9.5q14 0 23 -9.5t9 -23.5t-9.5 -23.5t-22.5 -9.5t-22.5 9.5t-9.5 23.5zM169 655q0 14 9 23.5t23 9.5q13 0 22.5 -9.5t9.5 -23.5t-9.5 -23.5t-22.5 -9.5q-14 0 -23 9.5t-9 23.5z" />
    <glyph glyph-name="eth" unicode="&#xf0;" horiz-adv-x="607" 
d="M95 232q0 -91 56 -152.5t149 -61.5t149.5 62t56.5 152q0 91 -56.5 151.5t-149.5 60.5q-94 0 -149.5 -60.5t-55.5 -151.5zM446 723l-104 -57q74 -74 138 -190t64 -235q0 -109 -65.5 -181.5t-178.5 -72.5q-105 0 -173.5 69.5t-68.5 175.5q0 107 68 175.5t174 68.5
q101 0 171 -71l5 2q-29 66 -76 133.5t-91 107.5l-112 -60l-19 21l110 60q-47 44 -98 79l30 20q45 -29 99 -82l104 57z" />
    <glyph glyph-name="ntilde" unicode="&#xf1;" horiz-adv-x="575" 
d="M96 462h35q4 -32 4 -108h2q20 56 68 89t105 33q87 0 129.5 -55.5t42.5 -139.5v-281h-36v271q0 73 -32 123.5t-107 50.5q-72 0 -121 -57t-49 -155v-233h-37v350q0 76 -4 112zM184 587h-24q12 81 67 81q26 0 67 -24q40 -24 61 -24q35 0 43 49h25q-11 -79 -68 -79
q-26 0 -66 24q-39 24 -62 24q-31 0 -43 -51z" />
    <glyph glyph-name="ograve" unicode="&#xf2;" horiz-adv-x="607" 
d="M547 232q0 -106 -68.5 -175.5t-175.5 -69.5q-106 0 -174.5 69.5t-68.5 175.5q0 107 68.5 175.5t174.5 68.5q107 0 175.5 -68.5t68.5 -175.5zM509 232q0 91 -56.5 152t-149.5 61q-94 0 -149.5 -61t-55.5 -152t56 -152.5t149 -61.5t149.5 62t56.5 152zM311 564l-117 144h47
l102 -144h-32z" />
    <glyph glyph-name="oacute" unicode="&#xf3;" horiz-adv-x="607" 
d="M547 232q0 -106 -68.5 -175.5t-175.5 -69.5q-106 0 -174.5 69.5t-68.5 175.5q0 107 68.5 175.5t174.5 68.5q107 0 175.5 -68.5t68.5 -175.5zM509 232q0 91 -56.5 152t-149.5 61q-94 0 -149.5 -61t-55.5 -152t56 -152.5t149 -61.5t149.5 62t56.5 152zM415 708l-117 -144
h-32l102 144h47z" />
    <glyph glyph-name="ocircumflex" unicode="&#xf4;" horiz-adv-x="607" 
d="M547 232q0 -106 -68.5 -175.5t-175.5 -69.5q-106 0 -174.5 69.5t-68.5 175.5q0 107 68.5 175.5t174.5 68.5q107 0 175.5 -68.5t68.5 -175.5zM509 232q0 91 -56.5 152t-149.5 61q-94 0 -149.5 -61t-55.5 -152t56 -152.5t149 -61.5t149.5 62t56.5 152zM326 708l105 -144
h-36l-91 125l-91 -125h-36l105 144h44z" />
    <glyph glyph-name="otilde" unicode="&#xf5;" horiz-adv-x="607" 
d="M547 232q0 -106 -68.5 -175.5t-175.5 -69.5q-106 0 -174.5 69.5t-68.5 175.5q0 107 68.5 175.5t174.5 68.5q107 0 175.5 -68.5t68.5 -175.5zM509 232q0 91 -56.5 152t-149.5 61q-94 0 -149.5 -61t-55.5 -152t56 -152.5t149 -61.5t149.5 62t56.5 152zM197 587h-24
q12 81 67 81q26 0 67 -24q40 -24 61 -24q35 0 43 49h25q-11 -79 -68 -79q-26 0 -66 24q-39 24 -62 24q-31 0 -43 -51z" />
    <glyph glyph-name="odieresis" unicode="&#xf6;" horiz-adv-x="607" 
d="M547 232q0 -106 -68.5 -175.5t-175.5 -69.5q-106 0 -174.5 69.5t-68.5 175.5q0 107 68.5 175.5t174.5 68.5q107 0 175.5 -68.5t68.5 -175.5zM509 232q0 91 -56.5 152t-149.5 61q-94 0 -149.5 -61t-55.5 -152t56 -152.5t149 -61.5t149.5 62t56.5 152zM190 655
q0 14 9.5 23.5t22.5 9.5q14 0 23 -9.5t9 -23.5t-9.5 -23.5t-22.5 -9.5t-22.5 9.5t-9.5 23.5zM356 655q0 14 9 23.5t23 9.5q13 0 22.5 -9.5t9.5 -23.5t-9.5 -23.5t-22.5 -9.5q-14 0 -23 9.5t-9 23.5z" />
    <glyph glyph-name="divide" unicode="&#xf7;" horiz-adv-x="666" 
d="M578 319v-32h-489v32h489zM375 468q0 -17 -12.5 -29.5t-29.5 -12.5t-29 12.5t-12 29.5q0 18 12 30.5t29 12.5t29.5 -12.5t12.5 -30.5zM375 138q0 -18 -12.5 -30.5t-29.5 -12.5t-29 12.5t-12 30.5t11.5 30t29.5 12q17 0 29.5 -12.5t12.5 -29.5z" />
    <glyph glyph-name="oslash" unicode="&#xf8;" horiz-adv-x="607" 
d="M70 -17l-20 19l67 67q-57 68 -57 163q0 107 68 175.5t175 68.5q93 0 162 -56l61 61l20 -19l-62 -62q63 -66 63 -168q0 -106 -68.5 -175.5t-175.5 -69.5q-102 0 -167 63zM141 93l301 303q-56 50 -139 50q-93 0 -149.5 -61.5t-56.5 -152.5q0 -83 44 -139zM302 17
q94 0 151 61.5t57 153.5q0 88 -50 144l-301 -303q56 -56 143 -56z" />
    <glyph glyph-name="ugrave" unicode="&#xf9;" horiz-adv-x="575" 
d="M478 0h-36q-4 35 -4 108h-2q-19 -55 -68.5 -88t-106.5 -33q-87 0 -128 55t-41 140v280h36v-270q0 -75 31.5 -125t106.5 -50q73 0 122 58t49 161v226h36v-350q0 -67 5 -112zM283 564l-117 144h47l102 -144h-32z" />
    <glyph glyph-name="uacute" unicode="&#xfa;" horiz-adv-x="575" 
d="M478 0h-36q-4 35 -4 108h-2q-19 -55 -68.5 -88t-106.5 -33q-87 0 -128 55t-41 140v280h36v-270q0 -75 31.5 -125t106.5 -50q73 0 122 58t49 161v226h36v-350q0 -67 5 -112zM391 708l-117 -144h-32l102 144h47z" />
    <glyph glyph-name="ucircumflex" unicode="&#xfb;" horiz-adv-x="575" 
d="M478 0h-36q-4 35 -4 108h-2q-19 -55 -68.5 -88t-106.5 -33q-87 0 -128 55t-41 140v280h36v-270q0 -75 31.5 -125t106.5 -50q73 0 122 58t49 161v226h36v-350q0 -67 5 -112zM304 708l105 -144h-36l-91 125l-91 -125h-36l105 144h44z" />
    <glyph glyph-name="udieresis" unicode="&#xfc;" horiz-adv-x="575" 
d="M478 0h-36q-4 35 -4 108h-2q-19 -55 -68.5 -88t-106.5 -33q-87 0 -128 55t-41 140v280h36v-270q0 -75 31.5 -125t106.5 -50q73 0 122 58t49 161v226h36v-350q0 -67 5 -112zM167 655q0 14 9.5 23.5t22.5 9.5q14 0 23 -9.5t9 -23.5t-9.5 -23.5t-22.5 -9.5t-22.5 9.5
t-9.5 23.5zM333 655q0 14 9 23.5t23 9.5q13 0 22.5 -9.5t9.5 -23.5t-9.5 -23.5t-22.5 -9.5q-14 0 -23 9.5t-9 23.5z" />
    <glyph glyph-name="yacute" unicode="&#xfd;" horiz-adv-x="447" 
d="M73 -241q-27 0 -47 6l6 33q18 -7 41 -7q62 0 94 87l42 113l-187 471h40l166 -431l158 431h39l-230 -604q-19 -50 -47.5 -74.5t-74.5 -24.5zM347 708l-117 -144h-32l102 144h47z" />
    <glyph glyph-name="thorn" unicode="&#xfe;" horiz-adv-x="628" 
d="M334 -13q-63 0 -117 32t-80 91h-2v-350h-36v996h36v-405h2q29 61 81.5 93t115.5 32q103 0 168.5 -69t65.5 -176q0 -105 -66 -174.5t-168 -69.5zM531 231q0 90 -55 151.5t-144 61.5q-87 0 -143.5 -61.5t-56.5 -151.5q0 -89 56.5 -151t143.5 -62q89 0 144 61.5t55 151.5z
" />
    <glyph glyph-name="ydieresis" unicode="&#xff;" horiz-adv-x="447" 
d="M73 -241q-27 0 -47 6l6 33q18 -7 41 -7q62 0 94 87l42 113l-187 471h40l166 -431l158 431h39l-230 -604q-19 -50 -47.5 -74.5t-74.5 -24.5zM113 655q0 14 9.5 23.5t22.5 9.5q14 0 23 -9.5t9 -23.5t-9.5 -23.5t-22.5 -9.5t-22.5 9.5t-9.5 23.5zM279 655q0 14 9 23.5
t23 9.5q13 0 22.5 -9.5t9.5 -23.5t-9.5 -23.5t-22.5 -9.5q-14 0 -23 9.5t-9 23.5z" />
    <glyph glyph-name="Amacron" unicode="&#x100;" horiz-adv-x="677" 
d="M140 198l-83 -198h-41l306 708h41l298 -708h-41l-82 198h-398zM341 674l-187 -443h370zM464 845v-30h-244v30h244z" />
    <glyph glyph-name="amacron" unicode="&#x101;" horiz-adv-x="519" 
d="M219 -13q-63 0 -109.5 34t-46.5 101q0 153 264 153h66v30q0 70 -37 105t-104 35q-80 0 -140 -55l-20 26q66 60 162 60q81 0 127.5 -42.5t46.5 -126.5v-203q0 -64 8 -104h-34q-7 44 -7 99h-3q-22 -56 -68 -84t-105 -28zM225 17q86 0 127 59t41 143v27h-56
q-238 0 -238 -123q0 -54 38 -80t88 -26zM387 645v-30h-244v30h244z" />
    <glyph glyph-name="Abreve" unicode="&#x102;" horiz-adv-x="677" 
d="M140 198l-83 -198h-41l306 708h41l298 -708h-41l-82 198h-398zM341 674l-187 -443h370zM448 901h26q-8 -62 -43 -95t-90 -33t-90 33.5t-41 94.5h26q9 -47 37 -72t68 -25q86 0 107 97z" />
    <glyph glyph-name="abreve" unicode="&#x103;" horiz-adv-x="519" 
d="M219 -13q-63 0 -109.5 34t-46.5 101q0 153 264 153h66v30q0 70 -37 105t-104 35q-80 0 -140 -55l-20 26q66 60 162 60q81 0 127.5 -42.5t46.5 -126.5v-203q0 -64 8 -104h-34q-7 44 -7 99h-3q-22 -56 -68 -84t-105 -28zM225 17q86 0 127 59t41 143v27h-56
q-238 0 -238 -123q0 -54 38 -80t88 -26zM372 701h26q-8 -62 -43 -95t-90 -33t-90 33.5t-41 94.5h26q9 -47 37 -72t68 -25q86 0 107 97z" />
    <glyph glyph-name="Aogonek" unicode="&#x104;" horiz-adv-x="677" 
d="M16 0l306 708h41l298 -708q-8 -7 -21.5 -18.5t-22.5 -19.5t-14 -15q-40 -47 -40 -82q0 -27 16.5 -43t43.5 -16q39 0 64 27l13 -23q-38 -33 -85 -33q-36 0 -61 22.5t-25 59.5q0 25 15 52t31 44t45 45l-82 198h-398l-83 -198h-41zM341 674l-187 -443h370z" />
    <glyph glyph-name="aogonek" unicode="&#x105;" horiz-adv-x="519" 
d="M219 -13q-63 0 -109.5 34t-46.5 101q0 153 262 153h68v30q0 70 -37 105t-104 35q-80 0 -140 -55l-20 26q66 60 162 60q81 0 127.5 -42.5t46.5 -126.5v-203q0 -64 8 -104h-3q-48 -48 -68 -76.5t-20 -58.5q0 -27 16.5 -43t43.5 -16q39 0 64 27l12 -23q-35 -33 -84 -33
q-36 0 -61 22.5t-25 59.5q0 25 14.5 52t31 44.5t45.5 44.5q-7 44 -7 99h-3q-22 -56 -68 -84t-105 -28zM225 17q44 0 78 16.5t53 44.5t28 60t9 67v41h-56q-238 0 -238 -123q0 -54 38 -80t88 -26z" />
    <glyph glyph-name="Cacute" unicode="&#x106;" horiz-adv-x="723" 
d="M659 117l28 -22q-41 -53 -109.5 -83.5t-146.5 -30.5q-159 0 -261.5 105.5t-102.5 267.5t102.5 267.5t261.5 105.5q71 0 134.5 -25t104.5 -72l-27 -25q-35 41 -93 64.5t-119 23.5q-144 0 -234.5 -97.5t-90.5 -241.5q0 -143 90 -241t235 -98q67 0 128.5 26t99.5 76z
M534 908l-117 -144h-32l102 144h47z" />
    <glyph glyph-name="cacute" unicode="&#x107;" horiz-adv-x="486" 
d="M454 410l-25 -23q-50 58 -130 58q-90 0 -145.5 -62t-55.5 -152t55.5 -151t145.5 -61q81 0 137 54l22 -22q-63 -64 -159 -64q-105 0 -172 68.5t-67 175.5q0 106 67 175.5t172 69.5q95 0 155 -66zM410 708l-117 -144h-32l102 144h47z" />
    <glyph glyph-name="Ccircumflex" unicode="&#x108;" horiz-adv-x="723" 
d="M659 117l28 -22q-41 -53 -109.5 -83.5t-146.5 -30.5q-159 0 -261.5 105.5t-102.5 267.5t102.5 267.5t261.5 105.5q71 0 134.5 -25t104.5 -72l-27 -25q-35 41 -93 64.5t-119 23.5q-144 0 -234.5 -97.5t-90.5 -241.5q0 -143 90 -241t235 -98q67 0 128.5 26t99.5 76z
M452 908l105 -144h-36l-91 125l-91 -125h-36l105 144h44z" />
    <glyph glyph-name="ccircumflex" unicode="&#x109;" horiz-adv-x="486" 
d="M454 410l-25 -23q-50 58 -130 58q-90 0 -145.5 -62t-55.5 -152t55.5 -151t145.5 -61q81 0 137 54l22 -22q-63 -64 -159 -64q-105 0 -172 68.5t-67 175.5q0 106 67 175.5t172 69.5q95 0 155 -66zM320 708l105 -144h-36l-91 125l-91 -125h-36l105 144h44z" />
    <glyph glyph-name="Cdotaccent" unicode="&#x10a;" horiz-adv-x="723" 
d="M659 117l28 -22q-41 -53 -109.5 -83.5t-146.5 -30.5q-159 0 -261.5 105.5t-102.5 267.5t102.5 267.5t261.5 105.5q71 0 134.5 -25t104.5 -72l-27 -25q-35 41 -93 64.5t-119 23.5q-144 0 -234.5 -97.5t-90.5 -241.5q0 -143 90 -241t235 -98q67 0 128.5 26t99.5 76z
M458 856q0 -14 -9.5 -23.5t-21.5 -9.5q-13 0 -22 9.5t-9 23.5t9.5 23t21.5 9t21.5 -9t9.5 -23z" />
    <glyph glyph-name="cdotaccent" unicode="&#x10b;" horiz-adv-x="486" 
d="M454 410l-25 -23q-50 58 -130 58q-90 0 -145.5 -62t-55.5 -152t55.5 -151t145.5 -61q81 0 137 54l22 -22q-63 -64 -159 -64q-105 0 -172 68.5t-67 175.5q0 106 67 175.5t172 69.5q95 0 155 -66zM325 656q0 -14 -9.5 -23.5t-21.5 -9.5t-21.5 9.5t-9.5 23.5t9.5 23t21.5 9
t21.5 -9t9.5 -23z" />
    <glyph glyph-name="Ccaron" unicode="&#x10c;" horiz-adv-x="723" 
d="M659 117l28 -22q-41 -53 -109.5 -83.5t-146.5 -30.5q-159 0 -261.5 105.5t-102.5 267.5t102.5 267.5t261.5 105.5q71 0 134.5 -25t104.5 -72l-27 -25q-35 41 -93 64.5t-119 23.5q-144 0 -234.5 -97.5t-90.5 -241.5q0 -143 90 -241t235 -98q67 0 128.5 26t99.5 76z
M557 908l-105 -144h-44l-105 144h36l91 -125l91 125h36z" />
    <glyph glyph-name="ccaron" unicode="&#x10d;" horiz-adv-x="486" 
d="M454 410l-25 -23q-50 58 -130 58q-90 0 -145.5 -62t-55.5 -152t55.5 -151t145.5 -61q81 0 137 54l22 -22q-63 -64 -159 -64q-105 0 -172 68.5t-67 175.5q0 106 67 175.5t172 69.5q95 0 155 -66zM423 708l-105 -144h-44l-105 144h36l91 -125l91 125h36z" />
    <glyph glyph-name="Dcaron" unicode="&#x10e;" horiz-adv-x="766" 
d="M102 0v708h212q79 0 147.5 -21.5t122 -63.5t84.5 -111t31 -158q0 -88 -31 -157t-84.5 -111.5t-122 -64t-147.5 -21.5h-212zM140 674v-640h164q162 0 259 84t97 236t-97 236t-259 84h-164zM480 908l-105 -144h-44l-105 144h36l91 -125l91 125h36z" />
    <glyph glyph-name="dcaron" unicode="&#x10f;" horiz-adv-x="660" 
d="M494 110h-2q-29 -59 -82.5 -91t-115.5 -32q-103 0 -168.5 69.5t-65.5 174.5t65.5 175t168.5 70q63 0 116 -32t82 -93h2v405h36v-756h-36v110zM98 231q0 -90 54 -151.5t144 -61.5q85 0 142 62.5t57 150.5q0 89 -57 151.5t-142 62.5q-90 0 -144 -62t-54 -152zM684 708
l-64 -185h-29l55 185h38z" />
    <glyph glyph-name="Dcroat" unicode="&#x110;" horiz-adv-x="766" 
d="M100 0v355h-78v30h78v323h211q79 0 147.5 -21.5t122 -63.5t84.5 -111t31 -158q0 -88 -31 -157t-84.5 -111.5t-122 -64t-147.5 -21.5h-211zM138 355v-321h163q162 0 258.5 84t96.5 236t-96.5 236t-258.5 84h-163v-289h265v-30h-265z" />
    <glyph glyph-name="dcroat" unicode="&#x111;" horiz-adv-x="629" 
d="M299 598h195v158h36v-158h66v-28h-66v-570h-36v110h-2q-29 -59 -82.5 -91t-115.5 -32q-103 0 -168.5 69.5t-65.5 174.5t65.5 175t168.5 70q63 0 116 -32t82 -93h2v219h-195v28zM98 231q0 -90 54 -151.5t144 -61.5q86 0 143.5 62.5t57.5 150.5q0 89 -57 151.5t-144 62.5
q-90 0 -144 -62t-54 -152z" />
    <glyph glyph-name="Emacron" unicode="&#x112;" horiz-adv-x="591" 
d="M139 351v-317h398v-34h-435v708h421v-34h-384v-290h360v-33h-360zM438 845v-30h-244v30h244z" />
    <glyph glyph-name="emacron" unicode="&#x113;" horiz-adv-x="561" 
d="M98 259h367q-2 83 -51.5 134.5t-129.5 51.5q-85 0 -134 -60.5t-52 -125.5zM293 -13q-102 0 -167.5 70t-65.5 178q0 104 64.5 172.5t159.5 68.5q103 0 160 -66t57 -159q0 -3 -0.5 -11t-0.5 -11h-403q0 -86 52.5 -148.5t143.5 -62.5q99 0 165 82l25 -21q-72 -92 -190 -92z
M411 645v-30h-244v30h244z" />
    <glyph glyph-name="Ebreve" unicode="&#x114;" horiz-adv-x="591" 
d="M139 351v-317h398v-34h-435v708h421v-34h-384v-290h360v-33h-360zM422 901h26q-8 -62 -43 -95t-90 -33t-90 33.5t-41 94.5h26q9 -47 37 -72t68 -25q86 0 107 97z" />
    <glyph glyph-name="ebreve" unicode="&#x115;" horiz-adv-x="561" 
d="M98 259h367q-2 83 -51.5 134.5t-129.5 51.5q-85 0 -134 -60.5t-52 -125.5zM293 -13q-102 0 -167.5 70t-65.5 178q0 104 64.5 172.5t159.5 68.5q103 0 160 -66t57 -159q0 -3 -0.5 -11t-0.5 -11h-403q0 -86 52.5 -148.5t143.5 -62.5q99 0 165 82l25 -21q-72 -92 -190 -92z
M396 701h26q-8 -62 -43 -95t-90 -33t-90 33.5t-41 94.5h26q9 -47 37 -72t68 -25q86 0 107 97z" />
    <glyph glyph-name="Edotaccent" unicode="&#x116;" horiz-adv-x="591" 
d="M139 351v-317h398v-34h-435v708h421v-34h-384v-290h360v-33h-360zM348 856q0 -14 -9.5 -23.5t-21.5 -9.5q-13 0 -22 9.5t-9 23.5t9.5 23t21.5 9t21.5 -9t9.5 -23z" />
    <glyph glyph-name="edotaccent" unicode="&#x117;" horiz-adv-x="561" 
d="M98 259h367q-2 83 -51.5 134.5t-129.5 51.5q-85 0 -134 -60.5t-52 -125.5zM293 -13q-102 0 -167.5 70t-65.5 178q0 104 64.5 172.5t159.5 68.5q103 0 160 -66t57 -159q0 -3 -0.5 -11t-0.5 -11h-403q0 -86 52.5 -148.5t143.5 -62.5q99 0 165 82l25 -21q-72 -92 -190 -92z
M320 656q0 -14 -9.5 -23.5t-21.5 -9.5q-13 0 -22 9.5t-9 23.5t9.5 23t21.5 9t21.5 -9t9.5 -23z" />
    <glyph glyph-name="Eogonek" unicode="&#x118;" horiz-adv-x="591" 
d="M559 -167l12 -23q-35 -33 -84 -33q-36 0 -61 22.5t-25 59.5q0 25 14.5 52t31 44.5t45.5 44.5h-390v708h421v-34h-384v-290h360v-33h-360v-317h398v-34h-14q-48 -46 -68 -75.5t-20 -59.5q0 -27 16.5 -43t43.5 -16q37 0 64 27z" />
    <glyph glyph-name="eogonek" unicode="&#x119;" horiz-adv-x="561" 
d="M317 -223q-36 0 -61 22.5t-25 59.5q0 55 77 128h-23q-99 2 -162 72.5t-63 175.5q0 104 64.5 172.5t159.5 68.5q103 0 160 -65.5t57 -158.5q0 -19 -1 -23h-403q0 -86 52.5 -148.5t143.5 -62.5q104 0 163 83l27 -22q-56 -72 -139 -87q-43 -43 -61.5 -70.5t-18.5 -56.5
q0 -27 17 -43t44 -16q38 0 63 27l13 -23q-38 -33 -84 -33zM98 259h367q-2 83 -51.5 134.5t-129.5 51.5q-85 0 -134 -60.5t-52 -125.5z" />
    <glyph glyph-name="Ecaron" unicode="&#x11a;" horiz-adv-x="591" 
d="M139 351v-317h398v-34h-435v708h421v-34h-384v-290h360v-33h-360zM443 908l-105 -144h-44l-105 144h36l91 -125l91 125h36z" />
    <glyph glyph-name="ecaron" unicode="&#x11b;" horiz-adv-x="561" 
d="M98 259h367q-2 83 -51.5 134.5t-129.5 51.5q-85 0 -134 -60.5t-52 -125.5zM293 -13q-102 0 -167.5 70t-65.5 178q0 104 64.5 172.5t159.5 68.5q103 0 160 -66t57 -159q0 -3 -0.5 -11t-0.5 -11h-403q0 -86 52.5 -148.5t143.5 -62.5q99 0 165 82l25 -21q-72 -92 -190 -92z
M415 708l-105 -144h-44l-105 144h36l91 -125l91 125h36z" />
    <glyph glyph-name="Gcircumflex" unicode="&#x11c;" horiz-adv-x="790" 
d="M678 641l-25 -26q-38 37 -97 58t-120 21q-147 0 -238.5 -98t-91.5 -241t91.5 -242t243.5 -99q120 0 218 49v261h-178v32h215v-312q-110 -63 -257 -63q-164 0 -268 106.5t-104 267.5q0 162 103.5 267t265.5 105q147 0 242 -86zM456 908l105 -144h-36l-91 125l-91 -125h-36
l105 144h44z" />
    <glyph glyph-name="gcircumflex" unicode="&#x11d;" horiz-adv-x="628" 
d="M85 -158l24 24q77 -81 187 -81q106 0 152 65.5t46 170.5v93h-2q-27 -59 -81 -91.5t-117 -32.5q-103 0 -168.5 68.5t-65.5 173.5q0 104 65.5 174t168.5 70q62 0 115.5 -33t82.5 -92h2v111h36v-443q0 -53 -11.5 -98t-37 -84t-73.5 -61.5t-113 -22.5q-129 0 -210 89zM98 232
q0 -88 54 -149.5t144 -61.5q86 0 142.5 61.5t56.5 150.5q0 88 -57 150t-142 62q-90 0 -144 -62t-54 -151zM329 708l105 -144h-36l-91 125l-91 -125h-36l105 144h44z" />
    <glyph glyph-name="Gbreve" unicode="&#x11e;" horiz-adv-x="790" 
d="M678 641l-25 -26q-38 37 -97 58t-120 21q-147 0 -238.5 -98t-91.5 -241t91.5 -242t243.5 -99q120 0 218 49v261h-178v32h215v-312q-110 -63 -257 -63q-164 0 -268 106.5t-104 267.5q0 162 103.5 267t265.5 105q147 0 242 -86zM540 901h26q-8 -62 -43 -95t-90 -33
t-90 33.5t-41 94.5h26q9 -47 37 -72t68 -25q86 0 107 97z" />
    <glyph glyph-name="gbreve" unicode="&#x11f;" horiz-adv-x="628" 
d="M85 -158l24 24q77 -81 187 -81q106 0 152 65.5t46 170.5v93h-2q-27 -59 -81 -91.5t-117 -32.5q-103 0 -168.5 68.5t-65.5 173.5q0 104 65.5 174t168.5 70q62 0 115.5 -33t82.5 -92h2v111h36v-443q0 -53 -11.5 -98t-37 -84t-73.5 -61.5t-113 -22.5q-129 0 -210 89zM98 232
q0 -88 54 -149.5t144 -61.5q86 0 142.5 61.5t56.5 150.5q0 88 -57 150t-142 62q-90 0 -144 -62t-54 -151zM413 701h26q-8 -62 -43 -95t-90 -33t-90 33.5t-41 94.5h26q9 -47 37 -72t68 -25q86 0 107 97z" />
    <glyph glyph-name="Gdotaccent" unicode="&#x120;" horiz-adv-x="790" 
d="M678 641l-25 -26q-38 37 -97 58t-120 21q-147 0 -238.5 -98t-91.5 -241t91.5 -242t243.5 -99q120 0 218 49v261h-178v32h215v-312q-110 -63 -257 -63q-164 0 -268 106.5t-104 267.5q0 162 103.5 267t265.5 105q147 0 242 -86zM462 856q0 -14 -9.5 -23.5t-21.5 -9.5
q-13 0 -22 9.5t-9 23.5t9.5 23t21.5 9t21.5 -9t9.5 -23z" />
    <glyph glyph-name="gdotaccent" unicode="&#x121;" horiz-adv-x="628" 
d="M85 -158l24 24q77 -81 187 -81q106 0 152 65.5t46 170.5v93h-2q-27 -59 -81 -91.5t-117 -32.5q-103 0 -168.5 68.5t-65.5 173.5q0 104 65.5 174t168.5 70q62 0 115.5 -33t82.5 -92h2v111h36v-443q0 -53 -11.5 -98t-37 -84t-73.5 -61.5t-113 -22.5q-129 0 -210 89zM98 232
q0 -88 54 -149.5t144 -61.5q86 0 142.5 61.5t56.5 150.5q0 88 -57 150t-142 62q-90 0 -144 -62t-54 -151zM336 656q0 -14 -9.5 -23.5t-21.5 -9.5q-13 0 -22 9.5t-9 23.5t9.5 23t21.5 9t21.5 -9t9.5 -23z" />
    <glyph glyph-name="Gcommaaccent" unicode="&#x122;" horiz-adv-x="791" 
d="M678 641l-25 -26q-38 37 -97 58t-120 21q-147 0 -238.5 -98t-91.5 -241t91.5 -242t243.5 -99q120 0 218 49v261h-178v32h215v-312q-110 -63 -257 -63q-164 0 -268 106.5t-104 267.5q0 162 103.5 267t265.5 105q147 0 242 -86zM466 -43l-64 -185h-29l54 185h39z" />
    <glyph glyph-name="gcommaaccent" unicode="&#x123;" horiz-adv-x="628" 
d="M85 -158l24 24q77 -81 187 -81q106 0 152 65.5t46 170.5v93h-2q-27 -59 -81 -91.5t-117 -32.5q-103 0 -168.5 68.5t-65.5 173.5q0 104 65.5 174t168.5 70q62 0 115.5 -33t82.5 -92h2v111h36v-443q0 -53 -11.5 -98t-37 -84t-73.5 -61.5t-113 -22.5q-129 0 -210 89zM98 232
q0 -88 54 -149.5t144 -61.5q86 0 142.5 61.5t56.5 150.5q0 88 -57 150t-142 62q-90 0 -144 -62t-54 -151zM278 564l63 185h30l-55 -185h-38z" />
    <glyph glyph-name="Hcircumflex" unicode="&#x124;" horiz-adv-x="728" 
d="M102 0v708h38v-324h448v324h37v-708h-37v350h-448v-350h-38zM386 908l105 -144h-36l-91 125l-91 -125h-36l105 144h44z" />
    <glyph glyph-name="hcircumflex" unicode="&#x125;" horiz-adv-x="573" 
d="M135 355h2q20 55 68.5 88t105.5 33q87 0 128 -55t41 -140v-281h-36v271q0 34 -6.5 62.5t-21 55t-43 41.5t-68.5 15q-73 0 -121.5 -59t-48.5 -167v-219h-36v756h36v-401zM307 940l105 -144h-36l-91 125l-91 -125h-36l105 144h44z" />
    <glyph glyph-name="Hbar" unicode="&#x126;" horiz-adv-x="728" 
d="M102 0v708h38v-180h448v180h37v-708h-37v350h-448v-350h-38zM140 384h448v116h-448v-116z" />
    <glyph glyph-name="hbar" unicode="&#x127;" horiz-adv-x="573" 
d="M32 598h67v158h36v-158h195v-28h-195v-215h2q20 55 68.5 88t105.5 33q87 0 128 -55t41 -140v-281h-36v271q0 34 -6.5 62.5t-21 55t-43 41.5t-68.5 15q-72 0 -121 -57t-49 -155v-233h-36v570h-67v28z" />
    <glyph glyph-name="Itilde" unicode="&#x128;" horiz-adv-x="242" 
d="M140 708v-708h-38v708h38zM15 787h-24q12 81 67 81q27 0 67 -24t61 -24q35 0 43 49h25q-11 -79 -68 -79q-26 0 -66 24q-39 24 -62 24q-31 0 -43 -51z" />
    <glyph glyph-name="itilde" unicode="&#x129;" horiz-adv-x="233" 
d="M135 462v-462h-36v462h36zM11 587h-24q12 81 67 81q26 0 67 -24q40 -24 61 -24q35 0 43 49h25q-11 -79 -68 -79q-26 0 -66 24q-39 24 -62 24q-31 0 -43 -51z" />
    <glyph glyph-name="Imacron" unicode="&#x12a;" horiz-adv-x="242" 
d="M140 708v-708h-38v708h38zM244 845v-30h-244v30h244z" />
    <glyph glyph-name="imacron" unicode="&#x12b;" horiz-adv-x="233" 
d="M135 462v-462h-36v462h36zM240 645v-30h-244v30h244z" />
    <glyph glyph-name="Ibreve" unicode="&#x12c;" horiz-adv-x="242" 
d="M140 708v-708h-38v708h38zM227 901h26q-8 -62 -43 -95t-90 -33t-90 33.5t-41 94.5h26q9 -47 37 -72t68 -25q86 0 107 97z" />
    <glyph glyph-name="ibreve" unicode="&#x12d;" horiz-adv-x="233" 
d="M135 462v-462h-36v462h36zM223 701h26q-8 -62 -43 -95t-90 -33t-90 33.5t-41 94.5h26q9 -47 37 -72t68 -25q86 0 107 97z" />
    <glyph glyph-name="Iogonek" unicode="&#x12e;" horiz-adv-x="242" 
d="M102 -223q-36 0 -61 22.5t-25 59.5q0 25 14.5 52t31 44.5t45.5 44.5h-5v708h38v-708q-50 -50 -70 -78.5t-20 -56.5q0 -27 16.5 -43t43.5 -16q39 0 64 27l12 -23q-35 -33 -84 -33z" />
    <glyph glyph-name="iogonek" unicode="&#x12f;" horiz-adv-x="233" 
d="M98 -223q-36 0 -61 22.5t-25 59.5q0 25 15 52t31 44t45 45h-4v462h36l-1 -462q-48 -48 -68 -76.5t-20 -58.5q0 -27 17 -43t44 -16q38 0 63 27l13 -23q-38 -33 -85 -33zM117 623q-13 0 -22 9.5t-9 23.5t9.5 23t21.5 9t21 -9t9 -23t-9 -23.5t-21 -9.5z" />
    <glyph glyph-name="Idotaccent" unicode="&#x130;" horiz-adv-x="242" 
d="M140 708v-708h-38v708h38zM153 856q0 -14 -9.5 -23.5t-21.5 -9.5t-21.5 9.5t-9.5 23.5t9.5 23t21.5 9t21.5 -9t9.5 -23z" />
    <glyph glyph-name="dotlessi" unicode="&#x131;" horiz-adv-x="233" 
d="M135 462v-462h-36v462h36z" />
    <glyph glyph-name="Jcircumflex" unicode="&#x134;" horiz-adv-x="484" 
d="M28 103l34 12q16 -45 52.5 -72.5t85.5 -27.5q77 0 113 50.5t36 134.5v508h37v-512q0 -95 -45.5 -154.5t-137.5 -59.5q-65 0 -112 34t-63 87zM388 908l105 -144h-36l-91 125l-91 -125h-36l105 144h44z" />
    <glyph glyph-name="jcircumflex" unicode="&#x135;" horiz-adv-x="234" 
d="M-20 -236l6 30q15 -4 30 -4q22 0 38 7t24.5 16.5t13.5 26.5t6 31t1 35v556h36v-558q0 -72 -25.5 -108.5t-92.5 -36.5q-17 0 -37 5zM138 708l105 -144h-36l-91 125l-91 -125h-36l105 144h44z" />
    <glyph glyph-name="Kcommaaccent" unicode="&#x136;" horiz-adv-x="584" 
d="M140 708v-323l351 323h54l-359 -324l377 -384h-54l-369 380v-380h-38v708h38zM343 -45l-63 -185h-30l55 185h38z" />
    <glyph glyph-name="kcommaaccent" unicode="&#x137;" horiz-adv-x="465" 
d="M135 756v-505h2l231 211h52l-241 -213l267 -249h-53l-256 244h-2v-244h-36v756h36zM286 -44l-64 -185h-29l54 185h39z" />
    <glyph glyph-name="kgreenlandic" unicode="&#x138;" horiz-adv-x="465" 
d="M135 462v-211h2l231 211h52l-241 -213l267 -249h-53l-256 244h-2v-244h-36v462h36z" />
    <glyph glyph-name="Lacute" unicode="&#x139;" horiz-adv-x="502" 
d="M140 708v-674h345v-34h-383v708h38zM253 908l-117 -144h-32l102 144h47z" />
    <glyph glyph-name="lacute" unicode="&#x13a;" horiz-adv-x="234" 
d="M135 756v-756h-36v756h36zM249 936l-117 -144h-32l102 144h47z" />
    <glyph glyph-name="Lcommaaccent" unicode="&#x13b;" horiz-adv-x="502" 
d="M140 708v-674h345v-34h-383v708h38zM320 -45l-64 -185h-29l55 185h38z" />
    <glyph glyph-name="lcommaaccent" unicode="&#x13c;" horiz-adv-x="234" 
d="M135 756v-756h-36v756h36zM152 -45l-64 -185h-29l54 185h39z" />
    <glyph glyph-name="Lcaron" unicode="&#x13d;" horiz-adv-x="502" 
d="M140 708v-674h345v-34h-383v708h38zM312 708l-63 -185h-29l54 185h38z" />
    <glyph glyph-name="lcaron" unicode="&#x13e;" horiz-adv-x="260" 
d="M135 756v-756h-36v756h36zM284 708l-64 -185h-29l55 185h38z" />
    <glyph glyph-name="Ldot" unicode="&#x13f;" horiz-adv-x="502" 
d="M140 708v-674h345v-34h-383v708h38zM327 436q0 -14 -9.5 -23.5t-21.5 -9.5t-21.5 9.5t-9.5 23.5t9.5 23t21.5 9t21.5 -9t9.5 -23z" />
    <glyph glyph-name="ldot" unicode="&#x140;" horiz-adv-x="264" 
d="M135 756v-756h-36v756h36zM258 466q0 -14 -9.5 -23.5t-21.5 -9.5q-13 0 -22 9.5t-9 23.5t9.5 23t21.5 9t21.5 -9t9.5 -23z" />
    <glyph glyph-name="Lslash" unicode="&#x141;" horiz-adv-x="502" 
d="M140 708v-387l210 186v-39l-210 -188v-246h345v-34h-383v253l-70 -63v40l70 63v415h38z" />
    <glyph glyph-name="lslash" unicode="&#x142;" horiz-adv-x="234" 
d="M137 756v-334l76 70v-40l-76 -71v-381h-35v352l-70 -67v42l70 66v363h35z" />
    <glyph glyph-name="Nacute" unicode="&#x143;" horiz-adv-x="773" 
d="M152 708l479 -656h2v656h38v-708h-50l-479 658h-2v-658h-38v708h50zM509 908l-117 -144h-32l102 144h47z" />
    <glyph glyph-name="nacute" unicode="&#x144;" horiz-adv-x="575" 
d="M96 462h35q4 -32 4 -108h2q20 56 68 89t105 33q87 0 129.5 -55.5t42.5 -139.5v-281h-36v271q0 73 -32 123.5t-107 50.5q-72 0 -121 -57t-49 -155v-233h-37v350q0 76 -4 112zM409 708l-117 -144h-32l102 144h47z" />
    <glyph glyph-name="Ncommaaccent" unicode="&#x145;" horiz-adv-x="773" 
d="M152 708l479 -656h2v656h38v-708h-50l-479 658h-2v-658h-38v708h50zM409 -45l-63 -185h-30l55 185h38z" />
    <glyph glyph-name="ncommaaccent" unicode="&#x146;" horiz-adv-x="575" 
d="M96 462h35q4 -32 4 -108h2q20 56 68 89t105 33q87 0 129.5 -55.5t42.5 -139.5v-281h-36v271q0 73 -32 123.5t-107 50.5q-72 0 -121 -57t-49 -155v-233h-37v350q0 76 -4 112zM322 -46l-64 -185h-29l54 185h39z" />
    <glyph glyph-name="Ncaron" unicode="&#x147;" horiz-adv-x="773" 
d="M152 708l479 -656h2v656h38v-708h-50l-479 658h-2v-658h-38v708h50zM514 908l-105 -144h-44l-105 144h36l91 -125l91 125h36z" />
    <glyph glyph-name="ncaron" unicode="&#x148;" horiz-adv-x="575" 
d="M96 462h35q4 -32 4 -108h2q20 56 68 89t105 33q87 0 129.5 -55.5t42.5 -139.5v-281h-36v271q0 73 -32 123.5t-107 50.5q-72 0 -121 -57t-49 -155v-233h-37v350q0 76 -4 112zM420 708l-105 -144h-44l-105 144h36l91 -125l91 125h36z" />
    <glyph glyph-name="Eng" unicode="&#x14a;" horiz-adv-x="773" 
d="M102 0v708h50l479 -648h2v648h38v-804q0 -72 -25.5 -108.5t-93.5 -36.5q-19 0 -37 5l6 30q15 -4 31 -4q27 0 44.5 9t25 27.5t10 36t2.5 43.5v84l-492 668h-2v-658h-38z" />
    <glyph glyph-name="eng" unicode="&#x14b;" horiz-adv-x="575" 
d="M327 -236l6 30q15 -4 30 -4q36 0 55 18t23.5 40t4.5 58v365q0 73 -32 123.5t-107 50.5q-72 0 -121 -57t-49 -155v-233h-37v350q0 76 -4 112h35q4 -32 4 -108h2q20 56 68.5 89t106.5 33q88 0 129 -55t41 -140v-377q0 -72 -25.5 -108.5t-93.5 -36.5q-18 0 -36 5z" />
    <glyph glyph-name="Omacron" unicode="&#x14c;" horiz-adv-x="865" 
d="M798 354q0 -162 -104 -267.5t-261 -105.5q-158 0 -262 105.5t-104 267.5t104 267.5t262 105.5t261.5 -105.5t103.5 -267.5zM759 354q0 143 -91 241.5t-235 98.5t-235.5 -98.5t-91.5 -241.5t91 -241t236 -98t235.5 98t90.5 241zM557 845v-30h-244v30h244z" />
    <glyph glyph-name="omacron" unicode="&#x14d;" horiz-adv-x="607" 
d="M547 232q0 -106 -68.5 -175.5t-175.5 -69.5q-106 0 -174.5 69.5t-68.5 175.5q0 107 68.5 175.5t174.5 68.5q107 0 175.5 -68.5t68.5 -175.5zM509 232q0 91 -56.5 152t-149.5 61q-94 0 -149.5 -61t-55.5 -152t56 -152.5t149 -61.5t149.5 62t56.5 152zM425 645v-30h-244v30
h244z" />
    <glyph glyph-name="Obreve" unicode="&#x14e;" horiz-adv-x="865" 
d="M798 354q0 -162 -104 -267.5t-261 -105.5q-158 0 -262 105.5t-104 267.5t104 267.5t262 105.5t261.5 -105.5t103.5 -267.5zM759 354q0 143 -91 241.5t-235 98.5t-235.5 -98.5t-91.5 -241.5t91 -241t236 -98t235.5 98t90.5 241zM539 901h26q-8 -62 -43 -95t-90 -33
t-90 33.5t-41 94.5h26q9 -47 37 -72t68 -25q86 0 107 97z" />
    <glyph glyph-name="obreve" unicode="&#x14f;" horiz-adv-x="607" 
d="M547 232q0 -106 -68.5 -175.5t-175.5 -69.5q-106 0 -174.5 69.5t-68.5 175.5q0 107 68.5 175.5t174.5 68.5q107 0 175.5 -68.5t68.5 -175.5zM509 232q0 91 -56.5 152t-149.5 61q-94 0 -149.5 -61t-55.5 -152t56 -152.5t149 -61.5t149.5 62t56.5 152zM410 701h26
q-8 -62 -43 -95t-90 -33t-90 33.5t-41 94.5h26q9 -47 37 -72t68 -25q86 0 107 97z" />
    <glyph glyph-name="Ohungarumlaut" unicode="&#x150;" horiz-adv-x="865" 
d="M798 354q0 -162 -104 -267.5t-261 -105.5q-158 0 -262 105.5t-104 267.5t104 267.5t262 105.5t261.5 -105.5t103.5 -267.5zM759 354q0 143 -91 241.5t-235 98.5t-235.5 -98.5t-91.5 -241.5t91 -241t236 -98t235.5 98t90.5 241zM348 763l103 145h47l-118 -145h-32z
M482 763l102 145h47l-117 -145h-32z" />
    <glyph glyph-name="ohungarumlaut" unicode="&#x151;" horiz-adv-x="607" 
d="M547 232q0 -106 -68.5 -175.5t-175.5 -69.5q-106 0 -174.5 69.5t-68.5 175.5q0 107 68.5 175.5t174.5 68.5q107 0 175.5 -68.5t68.5 -175.5zM509 232q0 91 -56.5 152t-149.5 61q-94 0 -149.5 -61t-55.5 -152t56 -152.5t149 -61.5t149.5 62t56.5 152zM219 563l103 145h47
l-118 -145h-32zM353 563l102 145h47l-117 -145h-32z" />
    <glyph glyph-name="OE" unicode="&#x152;" horiz-adv-x="982" 
d="M457 708h457v-34h-346v-290h324v-33h-324v-317h361v-34h-472q-79 0 -147.5 21.5t-122 63.5t-84.5 111t-31 158q0 88 31 157t84.5 111.5t122 64t147.5 21.5zM531 674h-65q-161 0 -258 -84t-97 -236t97 -236t258 -84h65v640z" />
    <glyph glyph-name="oe" unicode="&#x153;" horiz-adv-x="1006" 
d="M303 -13q-107 0 -175 69.5t-68 175.5q0 107 68 175.5t175 68.5q79 0 137 -39t85 -106q25 67 79.5 106t125.5 39q102 0 159 -65.5t57 -158.5v-23h-403q0 -86 52.5 -148.5t143.5 -62.5q103 0 163 83l27 -22q-72 -92 -191 -92q-75 0 -131 39t-81 108q-27 -69 -85 -108
t-138 -39zM509 232q0 91 -56.5 152t-149.5 61t-149.5 -61t-56.5 -152q0 -90 56.5 -152t149.5 -62t149.5 62t56.5 152zM544 259h366q-2 83 -51 134.5t-130 51.5q-84 0 -133 -60.5t-52 -125.5z" />
    <glyph glyph-name="Racute" unicode="&#x154;" horiz-adv-x="596" 
d="M140 349v-349h-38v708h200q100 0 164 -41t64 -138q0 -86 -58.5 -130t-139.5 -47l212 -352h-44l-208 349h-152zM140 676v-294h158q94 0 144.5 37.5t50.5 109.5q0 147 -202 147h-151zM386 908l-117 -144h-32l102 144h47z" />
    <glyph glyph-name="racute" unicode="&#x155;" horiz-adv-x="330" 
d="M100 0v350q0 76 -4 112h35q4 -32 4 -108h2q20 60 61.5 91t94.5 31q21 0 27 -2l-3 -33q-14 2 -24 2q-74 0 -115 -61t-41 -154v-228h-37zM271 708l-117 -144h-32l102 144h47z" />
    <glyph glyph-name="Rcommaaccent" unicode="&#x156;" horiz-adv-x="596" 
d="M140 349v-349h-38v708h200q100 0 164 -41t64 -138q0 -86 -58.5 -130t-139.5 -47l212 -352h-44l-208 349h-152zM140 676v-294h158q94 0 144.5 37.5t50.5 109.5q0 147 -202 147h-151zM336 -45l-64 -185h-29l54 185h39z" />
    <glyph glyph-name="rcommaaccent" unicode="&#x157;" horiz-adv-x="330" 
d="M100 0v350q0 76 -4 112h35q4 -32 4 -108h2q20 60 61.5 91t94.5 31q21 0 27 -2l-3 -33q-14 2 -24 2q-74 0 -115 -61t-41 -154v-228h-37zM154 -45l-64 -185h-29l54 185h39z" />
    <glyph glyph-name="Rcaron" unicode="&#x158;" horiz-adv-x="596" 
d="M140 349v-349h-38v708h200q100 0 164 -41t64 -138q0 -86 -58.5 -130t-139.5 -47l212 -352h-44l-208 349h-152zM140 676v-294h158q94 0 144.5 37.5t50.5 109.5q0 147 -202 147h-151zM402 908l-105 -144h-44l-105 144h36l91 -125l91 125h36z" />
    <glyph glyph-name="rcaron" unicode="&#x159;" horiz-adv-x="330" 
d="M100 0v350q0 76 -4 112h35q4 -32 4 -108h2q20 60 61.5 91t94.5 31q21 0 27 -2l-3 -33q-14 2 -24 2q-74 0 -115 -61t-41 -154v-228h-37zM328 708l-105 -144h-44l-105 144h36l91 -125l91 125h36z" />
    <glyph glyph-name="Sacute" unicode="&#x15a;" horiz-adv-x="568" 
d="M486 646l-28 -24q-56 72 -159 72q-73 0 -127.5 -40.5t-54.5 -113.5q0 -45 21 -77t55 -50t74.5 -32.5t81.5 -29.5t75 -35t55 -56t21 -85q0 -92 -64 -143t-156 -51q-138 0 -212 91l25 25q79 -82 187 -82q75 0 128.5 43t53.5 115q0 51 -28.5 85.5t-70.5 51t-92 35.5t-92 38
t-70.5 59t-28.5 97q0 88 64.5 138t155.5 50q124 0 186 -81zM406 908l-117 -144h-32l102 144h47z" />
    <glyph glyph-name="sacute" unicode="&#x15b;" horiz-adv-x="424" 
d="M361 404l-27 -20q-40 61 -120 61q-43 0 -77.5 -23t-34.5 -70q0 -40 28 -61t96 -37q73 -19 110 -47t37 -83q0 -65 -45.5 -100.5t-112.5 -35.5q-112 0 -169 81l29 21q50 -71 140 -71q49 0 85.5 26.5t36.5 75.5q0 21 -8.5 37.5t-19.5 26.5t-32.5 19t-36 13t-41.5 11
q-5 1 -8 2q-63 16 -94 44t-31 78q0 59 44 91.5t105 32.5q99 0 146 -72zM330 708l-117 -144h-32l102 144h47z" />
    <glyph glyph-name="Scircumflex" unicode="&#x15c;" horiz-adv-x="568" 
d="M486 646l-28 -24q-56 72 -159 72q-73 0 -127.5 -40.5t-54.5 -113.5q0 -45 21 -77t55 -50t74.5 -32.5t81.5 -29.5t75 -35t55 -56t21 -85q0 -92 -64 -143t-156 -51q-138 0 -212 91l25 25q79 -82 187 -82q75 0 128.5 43t53.5 115q0 51 -28.5 85.5t-70.5 51t-92 35.5t-92 38
t-70.5 59t-28.5 97q0 88 64.5 138t155.5 50q124 0 186 -81zM321 908l105 -144h-36l-91 125l-91 -125h-36l105 144h44z" />
    <glyph glyph-name="scircumflex" unicode="&#x15d;" horiz-adv-x="424" 
d="M361 404l-27 -20q-40 61 -120 61q-43 0 -77.5 -23t-34.5 -70q0 -40 28 -61t96 -37q73 -19 110 -47t37 -83q0 -65 -45.5 -100.5t-112.5 -35.5q-112 0 -169 81l29 21q50 -71 140 -71q49 0 85.5 26.5t36.5 75.5q0 21 -8.5 37.5t-19.5 26.5t-32.5 19t-36 13t-41.5 11
q-5 1 -8 2q-63 16 -94 44t-31 78q0 59 44 91.5t105 32.5q99 0 146 -72zM241 708l105 -144h-36l-91 125l-91 -125h-36l105 144h44z" />
    <glyph glyph-name="Scedilla" unicode="&#x15e;" horiz-adv-x="568" 
d="M486 646l-28 -24q-56 72 -159 72q-73 0 -127.5 -40.5t-54.5 -113.5q0 -45 21 -77t55 -50t74.5 -32.5t81.5 -29.5t75 -35t55 -56t21 -85q0 -89 -60 -139.5t-148 -54.5l-42 -64q21 7 48 7q35 0 60 -17t25 -52q0 -44 -34.5 -63t-79.5 -19q-46 0 -91 20l8 23q35 -17 82 -17
q33 0 57.5 13t24.5 43q0 47 -66 47q-37 0 -61 -13l-13 11l54 81q-125 6 -196 91l25 25q79 -82 187 -82q75 0 128.5 43t53.5 115q0 51 -28.5 85.5t-70.5 51t-92 35.5t-92 38t-70.5 59t-28.5 97q0 88 64.5 138t155.5 50q124 0 186 -81z" />
    <glyph glyph-name="scedilla" unicode="&#x15f;" horiz-adv-x="424" 
d="M361 404l-27 -20q-40 61 -120 61q-43 0 -77.5 -23t-34.5 -70q0 -40 28 -61t96 -37q73 -19 110 -47t37 -83q0 -61 -41 -96t-103 -39l-47 -72q21 7 48 7q35 0 60 -17t25 -52q0 -44 -34.5 -63t-79.5 -19q-46 0 -91 20l8 23q35 -17 82 -17q33 0 57.5 13t24.5 43q0 47 -66 47
q-37 0 -61 -13l-13 11l59 89q-103 5 -155 80l29 21q50 -71 140 -71q49 0 85.5 26.5t36.5 75.5q0 21 -8.5 37.5t-19.5 26.5t-32.5 19t-36 13t-41.5 11q-5 1 -8 2q-63 16 -94 44t-31 78q0 59 44 91.5t105 32.5q99 0 146 -72z" />
    <glyph glyph-name="Scaron" unicode="&#x160;" horiz-adv-x="568" 
d="M486 646l-28 -24q-56 72 -159 72q-73 0 -127.5 -40.5t-54.5 -113.5q0 -45 21 -77t55 -50t74.5 -32.5t81.5 -29.5t75 -35t55 -56t21 -85q0 -92 -64 -143t-156 -51q-138 0 -212 91l25 25q79 -82 187 -82q75 0 128.5 43t53.5 115q0 51 -28.5 85.5t-70.5 51t-92 35.5t-92 38
t-70.5 59t-28.5 97q0 88 64.5 138t155.5 50q124 0 186 -81zM422 908l-105 -144h-44l-105 144h36l91 -125l91 125h36z" />
    <glyph glyph-name="scaron" unicode="&#x161;" horiz-adv-x="424" 
d="M361 404l-27 -20q-40 61 -120 61q-43 0 -77.5 -23t-34.5 -70q0 -40 28 -61t96 -37q73 -19 110 -47t37 -83q0 -65 -45.5 -100.5t-112.5 -35.5q-112 0 -169 81l29 21q50 -71 140 -71q49 0 85.5 26.5t36.5 75.5q0 21 -8.5 37.5t-19.5 26.5t-32.5 19t-36 13t-41.5 11
q-5 1 -8 2q-63 16 -94 44t-31 78q0 59 44 91.5t105 32.5q99 0 146 -72zM346 708l-105 -144h-44l-105 144h36l91 -125l91 125h36z" />
    <glyph glyph-name="uni0162" unicode="&#x162;" horiz-adv-x="549" 
d="M293 674v-674h-37v674h-240v34h517v-34h-240zM309 -45l-64 -185h-29l54 185h39z" />
    <glyph glyph-name="uni0163" unicode="&#x163;" horiz-adv-x="308" 
d="M284 462v-30h-134v-324q0 -87 80 -87q28 0 53 11l3 -30q-33 -12 -65 -12q-50 0 -78.5 28.5t-28.5 83.5v330h-99v30h98v135h37v-135h134zM225 -45l-63 -185h-30l55 185h38z" />
    <glyph glyph-name="Tcaron" unicode="&#x164;" horiz-adv-x="549" 
d="M293 674v-674h-37v674h-240v34h517v-34h-240zM402 908l-105 -144h-44l-105 144h36l91 -125l91 125h36z" />
    <glyph glyph-name="tcaron" unicode="&#x165;" horiz-adv-x="318" 
d="M284 462v-30h-134v-324q0 -86 80 -86q28 0 53 11l3 -31q-33 -12 -64 -12q-50 0 -79 28.5t-29 83.5v330h-99v30h98v135h37v-135h134zM321 731l-64 -185h-29l55 185h38z" />
    <glyph glyph-name="Tbar" unicode="&#x166;" horiz-adv-x="549" 
d="M64 544h192v130h-240v34h517v-34h-240v-130h189v-28h-189v-516h-37v516h-192v28z" />
    <glyph glyph-name="tbar" unicode="&#x167;" horiz-adv-x="308" 
d="M23 288h91v144h-99v30h98v135h37v-135h134v-30h-134v-144h121v-27h-121v-153q0 -87 80 -87q28 0 53 11l3 -30q-33 -12 -65 -12q-50 0 -78.5 28.5t-28.5 83.5v159h-91v27z" />
    <glyph glyph-name="Utilde" unicode="&#x168;" horiz-adv-x="725" 
d="M363 -19q-74 0 -128 23.5t-83.5 65t-43.5 90.5t-14 107v441h38v-436q0 -37 5.5 -70t20.5 -68.5t40 -61t67 -42t98 -16.5q54 0 96 16t67 41t41 60.5t21.5 69t5.5 71.5v436h37v-441q0 -58 -14 -107t-43.5 -90.5t-83.5 -65t-127 -23.5zM256 787h-24q12 81 67 81q27 0 67 -24
t61 -24q35 0 43 49h25q-11 -79 -68 -79q-26 0 -66 24q-39 24 -62 24q-31 0 -43 -51z" />
    <glyph glyph-name="utilde" unicode="&#x169;" horiz-adv-x="575" 
d="M478 0h-36q-4 35 -4 108h-2q-19 -55 -68.5 -88t-106.5 -33q-87 0 -128 55t-41 140v280h36v-270q0 -75 31.5 -125t106.5 -50q73 0 122 58t49 161v226h36v-350q0 -67 5 -112zM178 587h-24q12 81 67 81q27 0 67 -24t61 -24q35 0 43 49h25q-11 -79 -68 -79q-26 0 -66 24
q-39 24 -62 24q-31 0 -43 -51z" />
    <glyph glyph-name="Umacron" unicode="&#x16a;" horiz-adv-x="725" 
d="M363 -19q-74 0 -128 23.5t-83.5 65t-43.5 90.5t-14 107v441h38v-436q0 -37 5.5 -70t20.5 -68.5t40 -61t67 -42t98 -16.5q54 0 96 16t67 41t41 60.5t21.5 69t5.5 71.5v436h37v-441q0 -58 -14 -107t-43.5 -90.5t-83.5 -65t-127 -23.5zM486 845v-30h-244v30h244z" />
    <glyph glyph-name="umacron" unicode="&#x16b;" horiz-adv-x="575" 
d="M478 0h-36q-4 35 -4 108h-2q-19 -55 -68.5 -88t-106.5 -33q-87 0 -128 55t-41 140v280h36v-270q0 -75 31.5 -125t106.5 -50q73 0 122 58t49 161v226h36v-350q0 -67 5 -112zM406 645v-30h-244v30h244z" />
    <glyph glyph-name="Ubreve" unicode="&#x16c;" horiz-adv-x="725" 
d="M363 -19q-74 0 -128 23.5t-83.5 65t-43.5 90.5t-14 107v441h38v-436q0 -37 5.5 -70t20.5 -68.5t40 -61t67 -42t98 -16.5q54 0 96 16t67 41t41 60.5t21.5 69t5.5 71.5v436h37v-441q0 -58 -14 -107t-43.5 -90.5t-83.5 -65t-127 -23.5zM469 901h26q-8 -62 -43 -95t-90 -33
t-90 33.5t-41 94.5h26q9 -47 37 -72t68 -25q86 0 107 97z" />
    <glyph glyph-name="ubreve" unicode="&#x16d;" horiz-adv-x="575" 
d="M478 0h-36q-4 35 -4 108h-2q-19 -55 -68.5 -88t-106.5 -33q-87 0 -128 55t-41 140v280h36v-270q0 -75 31.5 -125t106.5 -50q73 0 122 58t49 161v226h36v-350q0 -67 5 -112zM390 701h26q-8 -62 -43 -95t-90 -33t-90 33.5t-41 94.5h26q9 -47 37 -72t68 -25q86 0 107 97z
" />
    <glyph glyph-name="Uring" unicode="&#x16e;" horiz-adv-x="725" 
d="M363 -19q-74 0 -128 23.5t-83.5 65t-43.5 90.5t-14 107v441h38v-436q0 -37 5.5 -70t20.5 -68.5t40 -61t67 -42t98 -16.5q54 0 96 16t67 41t41 60.5t21.5 69t5.5 71.5v436h37v-441q0 -58 -14 -107t-43.5 -90.5t-83.5 -65t-127 -23.5zM461 850q0 -40 -28.5 -67.5
t-67.5 -27.5t-67.5 27.5t-28.5 67.5q0 39 28.5 67t67.5 28t67.5 -28t28.5 -67zM437 850q0 30 -21 51t-51 21t-51 -21t-21 -51t21 -51t51 -21t51 21t21 51z" />
    <glyph glyph-name="uring" unicode="&#x16f;" horiz-adv-x="575" 
d="M478 0h-36q-4 35 -4 108h-2q-19 -55 -68.5 -88t-106.5 -33q-87 0 -128 55t-41 140v280h36v-270q0 -75 31.5 -125t106.5 -50q73 0 122 58t49 161v226h36v-350q0 -67 5 -112zM380 650q0 -40 -28.5 -67.5t-67.5 -27.5t-67.5 27.5t-28.5 67.5q0 39 28.5 67t67.5 28t67.5 -28
t28.5 -67zM356 650q0 30 -21 51t-51 21t-51 -21t-21 -51t21 -51t51 -21t51 21t21 51z" />
    <glyph glyph-name="Uhungarumlaut" unicode="&#x170;" horiz-adv-x="725" 
d="M363 -19q-74 0 -128 23.5t-83.5 65t-43.5 90.5t-14 107v441h38v-436q0 -37 5.5 -70t20.5 -68.5t40 -61t67 -42t98 -16.5q54 0 96 16t67 41t41 60.5t21.5 69t5.5 71.5v436h37v-441q0 -58 -14 -107t-43.5 -90.5t-83.5 -65t-127 -23.5zM275 763l103 145h47l-118 -145h-32z
M409 763l102 145h47l-117 -145h-32z" />
    <glyph glyph-name="uhungarumlaut" unicode="&#x171;" horiz-adv-x="575" 
d="M478 0h-36q-4 35 -4 108h-2q-19 -55 -68.5 -88t-106.5 -33q-87 0 -128 55t-41 140v280h36v-270q0 -75 31.5 -125t106.5 -50q73 0 122 58t49 161v226h36v-350q0 -67 5 -112zM196 563l103 145h47l-118 -145h-32zM330 563l102 145h47l-117 -145h-32z" />
    <glyph glyph-name="Uogonek" unicode="&#x172;" horiz-adv-x="725" 
d="M377 -19h-14q-74 0 -128 23.5t-83.5 65t-43.5 90.5t-14 107v441h38v-436q0 -37 5.5 -70t20.5 -68.5t40 -61t67 -42t98 -16.5q54 0 96 16t67 41t41 60.5t21.5 69t5.5 71.5v436h37v-441q0 -113 -51.5 -190.5t-166.5 -92.5q-39 -38 -56 -64.5t-17 -54.5q0 -27 17 -43t44 -16
q38 0 63 27l13 -23q-38 -33 -85 -33q-36 0 -60.5 22.5t-24.5 59.5q0 54 70 122z" />
    <glyph glyph-name="uogonek" unicode="&#x173;" horiz-adv-x="575" 
d="M437 -223q-36 0 -61 22.5t-25 59.5q0 25 14.5 52t31 44.5t45.5 44.5q-4 35 -4 108h-2q-19 -55 -68.5 -88t-106.5 -33q-87 0 -128 55t-41 140v280h36v-270q0 -75 31.5 -125t106.5 -50q73 0 122 57t49 155v233h36v-350q0 -67 5 -112l-4 -1q-1 0 -2 -1h-1q-47 -47 -66.5 -75
t-19.5 -58q0 -27 16.5 -43t43.5 -16q37 0 64 27l12 -23q-35 -33 -84 -33z" />
    <glyph glyph-name="Wcircumflex" unicode="&#x174;" horiz-adv-x="961" 
d="M63 708l195 -664h3l193 664h50l197 -664h2l195 664h39l-211 -708h-49l-197 663h-2l-194 -663h-49l-211 708h39zM501 908l105 -144h-36l-91 125l-91 -125h-36l105 144h44z" />
    <glyph glyph-name="wcircumflex" unicode="&#x175;" horiz-adv-x="713" 
d="M32 462h38l122 -420h2l141 420h42l142 -420h2l122 420h38l-139 -462h-43l-143 418h-2l-141 -418h-43zM378 708l105 -144h-36l-91 125l-91 -125h-36l105 144h44z" />
    <glyph glyph-name="Ycircumflex" unicode="&#x176;" horiz-adv-x="558" 
d="M298 308v-308h-38v308l-250 400h46l224 -366l224 366h43zM302 908l105 -144h-36l-91 125l-91 -125h-36l105 144h44z" />
    <glyph glyph-name="ycircumflex" unicode="&#x177;" horiz-adv-x="447" 
d="M73 -241q-27 0 -47 6l6 33q18 -7 41 -7q62 0 94 87l42 113l-187 471h40l166 -431l158 431h39l-230 -604q-19 -50 -47.5 -74.5t-74.5 -24.5zM251 708l105 -144h-36l-91 125l-91 -125h-36l105 144h44z" />
    <glyph glyph-name="Ydieresis" unicode="&#x178;" horiz-adv-x="558" 
d="M298 308v-308h-38v308l-250 400h46l224 -366l224 366h43zM166 855q0 14 9.5 23.5t22.5 9.5q14 0 23 -9.5t9 -23.5t-9.5 -23.5t-22.5 -9.5t-22.5 9.5t-9.5 23.5zM332 855q0 14 9 23.5t23 9.5q13 0 22.5 -9.5t9.5 -23.5t-9.5 -23.5t-22.5 -9.5q-14 0 -23 9.5t-9 23.5z" />
    <glyph glyph-name="Zacute" unicode="&#x179;" horiz-adv-x="587" 
d="M538 708v-39l-450 -635h461v-34h-502v37l452 637h-440v34h479zM416 908l-117 -144h-32l102 144h47z" />
    <glyph glyph-name="zacute" unicode="&#x17a;" horiz-adv-x="439" 
d="M383 462v-30l-296 -401h307v-31h-351v29l299 403h-283v30h324zM341 708l-117 -144h-32l102 144h47z" />
    <glyph glyph-name="Zdotaccent" unicode="&#x17b;" horiz-adv-x="587" 
d="M538 708v-39l-450 -635h461v-34h-502v37l452 637h-440v34h479zM330 856q0 -14 -9.5 -23.5t-21.5 -9.5q-13 0 -22 9.5t-9 23.5t9.5 23t21.5 9t21.5 -9t9.5 -23z" />
    <glyph glyph-name="zdotaccent" unicode="&#x17c;" horiz-adv-x="439" 
d="M383 462v-30l-296 -401h307v-31h-351v29l299 403h-283v30h324zM254 656q0 -14 -9.5 -23.5t-21.5 -9.5q-13 0 -22 9.5t-9 23.5t9.5 23t21.5 9t21.5 -9t9.5 -23z" />
    <glyph glyph-name="Zcaron" unicode="&#x17d;" horiz-adv-x="587" 
d="M538 708v-39l-450 -635h461v-34h-502v37l452 637h-440v34h479zM425 908l-105 -144h-44l-105 144h36l91 -125l91 125h36z" />
    <glyph glyph-name="zcaron" unicode="&#x17e;" horiz-adv-x="439" 
d="M383 462v-30l-296 -401h307v-31h-351v29l299 403h-283v30h324zM351 708l-105 -144h-44l-105 144h36l91 -125l91 125h36z" />
    <glyph glyph-name="florin" unicode="&#x192;" horiz-adv-x="566" 
d="M412 411v-29h-121l-72 -392q-11 -61 -40.5 -96.5t-89.5 -35.5q-40 0 -64 14l15 30q24 -12 50 -12q47 0 66 30t32 92l66 370h-110v29h116l29 164q25 145 136 145q47 0 75 -22l-18 -27q-23 17 -55 17q-83 0 -101 -113l-29 -164h115z" />
    <glyph glyph-name="Scommaaccent" unicode="&#x218;" horiz-adv-x="568" 
d="M486 646l-28 -24q-56 72 -159 72q-73 0 -127.5 -40.5t-54.5 -113.5q0 -45 21 -77t55 -50t74.5 -32.5t81.5 -29.5t75 -35t55 -56t21 -85q0 -92 -64 -143t-156 -51q-138 0 -212 91l25 25q79 -82 187 -82q75 0 128.5 43t53.5 115q0 51 -28.5 85.5t-70.5 51t-92 35.5t-92 38
t-70.5 59t-28.5 97q0 88 64.5 138t155.5 50q124 0 186 -81zM321 -45l-64 -185h-29l54 185h39z" />
    <glyph glyph-name="scommaaccent" unicode="&#x219;" horiz-adv-x="424" 
d="M361 404l-27 -20q-40 61 -120 61q-43 0 -77.5 -23t-34.5 -70q0 -40 28 -61t96 -37q73 -19 110 -47t37 -83q0 -65 -45.5 -100.5t-112.5 -35.5q-112 0 -169 81l29 21q50 -71 140 -71q49 0 85.5 26.5t36.5 75.5q0 21 -8.5 37.5t-19.5 26.5t-32.5 19t-36 13t-41.5 11
q-5 1 -8 2q-63 16 -94 44t-31 78q0 59 44 91.5t105 32.5q99 0 146 -72zM246 -47l-64 -185h-29l54 185h39z" />
    <glyph glyph-name="uni021A" unicode="&#x21a;" horiz-adv-x="549" 
d="M293 674v-674h-37v674h-240v34h517v-34h-240zM309 -45l-64 -185h-29l54 185h39z" />
    <glyph glyph-name="uni021B" unicode="&#x21b;" horiz-adv-x="308" 
d="M284 462v-30h-134v-324q0 -87 80 -87q28 0 53 11l3 -30q-33 -12 -65 -12q-50 0 -78.5 28.5t-28.5 83.5v330h-99v30h98v135h37v-135h134zM225 -45l-63 -185h-30l55 185h38z" />
    <glyph glyph-name="dotlessj" unicode="&#x237;" horiz-adv-x="234" 
d="M-20 -236l6 30q15 -4 30 -4q22 0 38 7t24.5 16.5t13.5 26.5t6 31t1 35v556h36v-558q0 -72 -25.5 -108.5t-92.5 -36.5q-17 0 -37 5z" />
    <glyph glyph-name="circumflex" unicode="&#x2c6;" horiz-adv-x="240" 
d="M142 708l105 -144h-36l-91 125l-91 -125h-36l105 144h44z" />
    <glyph glyph-name="caron" unicode="&#x2c7;" horiz-adv-x="240" 
d="M247 708l-105 -144h-44l-105 144h36l91 -125l91 125h36z" />
    <glyph glyph-name="uni02C9" unicode="&#x2c9;" horiz-adv-x="240" 
d="M242 845v-30h-244v30h244z" />
    <glyph glyph-name="breve" unicode="&#x2d8;" horiz-adv-x="240" 
d="M226 701h26q-8 -62 -43 -95t-90 -33t-90 33.5t-41 94.5h26q9 -47 37 -72t68 -25q86 0 107 97z" />
    <glyph glyph-name="dotaccent" unicode="&#x2d9;" horiz-adv-x="240" 
d="M151 656q0 -14 -9.5 -23.5t-21.5 -9.5t-21.5 9.5t-9.5 23.5t9.5 23t21.5 9t21.5 -9t9.5 -23z" />
    <glyph glyph-name="ring" unicode="&#x2da;" horiz-adv-x="240" 
d="M216 650q0 -40 -28.5 -67.5t-67.5 -27.5t-67.5 27.5t-28.5 67.5q0 39 28.5 67t67.5 28t67.5 -28t28.5 -67zM192 650q0 30 -21 51t-51 21t-51 -21t-21 -51t21 -51t51 -21t51 21t21 51z" />
    <glyph glyph-name="ogonek" unicode="&#x2db;" horiz-adv-x="240" 
d="M194 -167l13 -23q-35 -33 -84 -33q-36 0 -61 22.5t-25 59.5q0 25 14.5 52t31 44.5t45.5 44.5h31q-48 -46 -68 -75.5t-20 -59.5q0 -27 16.5 -43t43.5 -16q38 0 63 27z" />
    <glyph glyph-name="tilde" unicode="&#x2dc;" horiz-adv-x="240" 
d="M13 587h-24q12 81 67 81q26 0 67 -24q40 -24 61 -24q35 0 43 49h25q-11 -79 -68 -79q-26 0 -66 24q-39 24 -62 24q-31 0 -43 -51z" />
    <glyph glyph-name="hungarumlaut" unicode="&#x2dd;" horiz-adv-x="240" 
d="M9 563l103 145h47l-118 -145h-32zM143 563l102 145h47l-117 -145h-32z" />
    <glyph glyph-name="uni0394" unicode="&#x394;" horiz-adv-x="661" 
d="M631 0h-599l275 712h44zM581 33l-252 645l-250 -645h502z" />
    <glyph glyph-name="uni03A9" unicode="&#x3a9;" horiz-adv-x="740" 
d="M670 0h-223v166q90 17 138.5 86t48.5 166q0 115 -78 192.5t-191 77.5t-191 -77.5t-78 -192.5q0 -95 48.5 -165t138.5 -87v-166h-223v32h194v109q-90 26 -142 102.5t-52 174.5q0 128 90 215.5t215 87.5q127 0 216 -87t89 -216q0 -98 -51.5 -174.5t-142.5 -102.5v-109h194
v-32z" />
    <glyph glyph-name="uni03BC" unicode="&#x3bc;" horiz-adv-x="556" 
d="M87 -228v690h36v-270q0 -174 139 -174q72 0 121 57.5t49 153.5v233h35v-350q0 -16 2 -57.5t2 -54.5h-38v107h-2q-21 -55 -69.5 -87.5t-105.5 -32.5q-92 0 -133 68v-283h-36z" />
    <glyph glyph-name="pi" unicode="&#x3c0;" horiz-adv-x="558" 
d="M513 30v-23q-25 -12 -53 -12q-18 0 -30.5 5.5t-18.5 13t-9.5 23t-4 27.5t-0.5 36v330h-252v-430h-35v430h-70v32h468v-32h-76v-341q0 -35 9 -50t37 -15q19 0 35 6z" />
    <glyph glyph-name="Wgrave" unicode="&#x1e80;" horiz-adv-x="961" 
d="M63 708l195 -664h3l193 664h50l197 -664h2l195 664h39l-211 -708h-49l-197 663h-2l-194 -663h-49l-211 708h39zM465 764l-117 144h47l102 -144h-32z" />
    <glyph glyph-name="wgrave" unicode="&#x1e81;" horiz-adv-x="713" 
d="M32 462h38l122 -420h2l141 420h42l142 -420h2l122 420h38l-139 -462h-43l-143 418h-2l-141 -418h-43zM337 564l-117 144h47l102 -144h-32z" />
    <glyph glyph-name="Wacute" unicode="&#x1e82;" horiz-adv-x="961" 
d="M63 708l195 -664h3l193 664h50l197 -664h2l195 664h39l-211 -708h-49l-197 663h-2l-194 -663h-49l-211 708h39zM611 908l-117 -144h-32l102 144h47z" />
    <glyph glyph-name="wacute" unicode="&#x1e83;" horiz-adv-x="713" 
d="M32 462h38l122 -420h2l141 420h42l142 -420h2l122 420h38l-139 -462h-43l-143 418h-2l-141 -418h-43zM492 708l-117 -144h-32l102 144h47z" />
    <glyph glyph-name="Wdieresis" unicode="&#x1e84;" horiz-adv-x="961" 
d="M63 708l195 -664h3l193 664h50l197 -664h2l195 664h39l-211 -708h-49l-197 663h-2l-194 -663h-49l-211 708h39zM365 855q0 14 9.5 23.5t22.5 9.5q14 0 23 -9.5t9 -23.5t-9.5 -23.5t-22.5 -9.5t-22.5 9.5t-9.5 23.5zM531 855q0 14 9 23.5t23 9.5q13 0 22.5 -9.5t9.5 -23.5
t-9.5 -23.5t-22.5 -9.5q-14 0 -23 9.5t-9 23.5z" />
    <glyph glyph-name="wdieresis" unicode="&#x1e85;" horiz-adv-x="713" 
d="M32 462h38l122 -420h2l141 420h42l142 -420h2l122 420h38l-139 -462h-43l-143 418h-2l-141 -418h-43zM241 655q0 14 9.5 23.5t22.5 9.5q14 0 23 -9.5t9 -23.5t-9.5 -23.5t-22.5 -9.5t-22.5 9.5t-9.5 23.5zM407 655q0 14 9 23.5t23 9.5q13 0 22.5 -9.5t9.5 -23.5
t-9.5 -23.5t-22.5 -9.5q-14 0 -23 9.5t-9 23.5z" />
    <glyph glyph-name="Ygrave" unicode="&#x1ef2;" horiz-adv-x="558" 
d="M298 308v-308h-38v308l-250 400h46l224 -366l224 366h43zM275 764l-117 144h47l102 -144h-32z" />
    <glyph glyph-name="ygrave" unicode="&#x1ef3;" horiz-adv-x="447" 
d="M73 -241q-27 0 -47 6l6 33q18 -7 41 -7q62 0 94 87l42 113l-187 471h40l166 -431l158 431h39l-230 -604q-19 -50 -47.5 -74.5t-74.5 -24.5zM223 564l-117 144h47l102 -144h-32z" />
    <glyph glyph-name="endash" unicode="&#x2013;" horiz-adv-x="400" 
d="M370 266v-31h-340v31h340z" />
    <glyph glyph-name="emdash" unicode="&#x2014;" horiz-adv-x="600" 
d="M570 266v-31h-540v31h540z" />
    <glyph glyph-name="quoteleft" unicode="&#x2018;" horiz-adv-x="221" 
d="M61 478l69 230h29l-59 -230h-39z" />
    <glyph glyph-name="quoteright" unicode="&#x2019;" horiz-adv-x="221" 
d="M159 708l-68 -230h-30l60 230h38z" />
    <glyph glyph-name="quotesinglbase" unicode="&#x201a;" horiz-adv-x="221" 
d="M159 92l-68 -231h-30l60 231h38z" />
    <glyph glyph-name="quotedblleft" unicode="&#x201c;" horiz-adv-x="361" 
d="M61 478l70 230h30l-61 -230h-39zM202 478l69 230h29l-59 -230h-39z" />
    <glyph glyph-name="quotedblright" unicode="&#x201d;" horiz-adv-x="361" 
d="M201 478l61 230h38l-70 -230h-29zM61 478l60 230h38l-68 -230h-30z" />
    <glyph glyph-name="quotedblbase" unicode="&#x201e;" horiz-adv-x="361" 
d="M201 -139l61 231h38l-70 -231h-29zM61 -139l60 231h38l-68 -231h-30z" />
    <glyph glyph-name="dagger" unicode="&#x2020;" horiz-adv-x="531" 
d="M284 708v-206h197v-32h-197v-596h-36v596h-198v32h198v206h36z" />
    <glyph glyph-name="daggerdbl" unicode="&#x2021;" horiz-adv-x="531" 
d="M284 708v-202h194v-33h-194v-364h194v-33h-194v-202h-36v202h-195v33h195v364h-195v33h195v202h36z" />
    <glyph glyph-name="bullet" unicode="&#x2022;" horiz-adv-x="500" 
d="M73 354q0 74 51.5 125.5t125.5 51.5t125.5 -51.5t51.5 -125.5t-51.5 -125.5t-125.5 -51.5t-125.5 51.5t-51.5 125.5z" />
    <glyph glyph-name="ellipsis" unicode="&#x2026;" horiz-adv-x="1000" 
d="M198 29q0 -15 -9.5 -25t-22.5 -10q-14 0 -23.5 10t-9.5 25q0 14 9.5 24t23.5 10t23 -10t9 -24zM533 29q0 -15 -10 -25t-23 -10q-14 0 -23.5 10t-9.5 25q0 14 9.5 24t23.5 10t23.5 -10t9.5 -24zM867 29q0 -15 -9.5 -25t-23.5 -10t-23 10t-9 25q0 14 9 24t23 10t23.5 -10
t9.5 -24z" />
    <glyph glyph-name="perthousand" unicode="&#x2030;" horiz-adv-x="1000" 
d="M475 -7q-61 0 -104 43t-43 105q0 63 43 106.5t104 43.5q62 0 105.5 -43.5t43.5 -106.5q0 -62 -43.5 -105t-105.5 -43zM475 23q49 0 83 34t34 84q0 51 -34 85.5t-83 34.5q-48 0 -81 -34.5t-33 -85.5q0 -50 33 -84t81 -34zM820 -7q-62 0 -105 43t-43 105q0 63 43 106.5
t105 43.5q61 0 104.5 -43.5t43.5 -106.5q0 -62 -43.5 -105t-104.5 -43zM820 23q49 0 82.5 34t33.5 84q0 51 -33.5 85.5t-82.5 34.5q-48 0 -81.5 -34.5t-33.5 -85.5q0 -50 33.5 -84t81.5 -34zM555 721l-443 -749l-27 16l443 749zM185 420q-62 0 -105 43t-43 105
q0 63 43 106.5t105 43.5q61 0 104.5 -43.5t43.5 -106.5q0 -62 -43.5 -105t-104.5 -43zM185 450q49 0 82.5 34t33.5 84q0 51 -33.5 85.5t-82.5 34.5q-48 0 -81.5 -34.5t-33.5 -85.5q0 -50 33.5 -84t81.5 -34z" />
    <glyph glyph-name="guilsinglleft" unicode="&#x2039;" horiz-adv-x="315" 
d="M114 238l115 -182l-26 -19l-128 201l127 200l26 -18z" />
    <glyph glyph-name="guilsinglright" unicode="&#x203a;" horiz-adv-x="315" 
d="M201 238l-115 182l26 19l128 -201l-127 -200l-26 18z" />
    <glyph glyph-name="fraction" unicode="&#x2044;" horiz-adv-x="100" 
d="M273 721l-443 -749l-27 16l443 749z" />
    <glyph glyph-name="zero.superior" unicode="&#x2070;" 
d="M313 663q0 -42 -6 -77.5t-20 -69.5t-42 -53.5t-67 -19.5q-40 0 -68 19.5t-41.5 53.5t-19.5 69.5t-6 77.5t6 77.5t19.5 69.5t41.5 53.5t68 19.5q39 0 67 -19.5t42 -53.5t20 -69.5t6 -77.5zM280 663q0 31 -4 59.5t-13.5 60.5t-31.5 51.5t-53 19.5q-32 0 -53.5 -19.5
t-31.5 -52.5t-13.5 -61t-3.5 -58q0 -31 3.5 -59t13.5 -60.5t31.5 -52t53.5 -19.5q31 0 53 19.5t31.5 51.5t13.5 60.5t4 59.5z" />
    <glyph glyph-name="four.superior" unicode="&#x2074;" 
d="M256 453h-31v104h-192v31l181 285h42v-287h65v-29h-65v-104zM225 586v246h-3l-156 -246h159z" />
    <glyph glyph-name="five.superior" unicode="&#x2075;" 
d="M306 582q0 -64 -39.5 -101.5t-95.5 -37.5q-85 0 -122 69l28 13q33 -53 94 -53q42 0 72.5 29t30.5 80q0 49 -29.5 78.5t-79.5 29.5q-41 0 -86 -26l4 210h205v-29h-173l-3 -139q33 12 60 12q61 0 97.5 -37.5t36.5 -97.5z" />
    <glyph glyph-name="six.superior" unicode="&#x2076;" 
d="M310 574q0 -57 -37.5 -94t-94.5 -37q-58 0 -95 36.5t-37 94.5q0 48 38 113l110 186h39l-113 -185l1 -1q32 20 63 20q55 0 90.5 -37t35.5 -96zM277 574q0 46 -27 75.5t-70 29.5q-42 0 -71.5 -30t-29.5 -75t27.5 -73.5t71.5 -28.5t71.5 28.5t27.5 73.5z" />
    <glyph glyph-name="seven.superior" unicode="&#x2077;" 
d="M131 453h-36l172 391h-205v29h239v-27z" />
    <glyph glyph-name="eight.superior" unicode="&#x2078;" 
d="M310 566q0 -56 -37.5 -89.5t-93.5 -33.5q-57 0 -94.5 33.5t-37.5 89.5q0 37 21 67t58 44v1q-31 14 -47.5 40.5t-16.5 55.5q0 48 33.5 78.5t83.5 30.5q49 0 82 -30.5t33 -78.5q0 -30 -16.5 -56t-46.5 -40v-1q37 -14 58 -44t21 -67zM179 854q-36 0 -60 -22.5t-24 -57.5
t24 -59t60 -24q35 0 59 24.5t24 58.5q0 35 -23.5 57.5t-59.5 22.5zM179 663q-43 0 -71.5 -27.5t-28.5 -68.5q0 -42 27.5 -68.5t72.5 -26.5t72 26.5t27 68.5t-28.5 69t-70.5 27z" />
    <glyph glyph-name="nine.superior" unicode="&#x2079;" 
d="M310 751q0 -46 -38 -111l-111 -187h-38l114 187l-1 1q-25 -20 -64 -20q-54 0 -90 36.5t-36 93.5t37.5 94.5t94.5 37.5q58 0 95 -37t37 -95zM277 751q0 45 -28 74t-71 29q-44 0 -71.5 -29t-27.5 -74q0 -44 27 -73t70 -29q42 0 71.5 29.5t29.5 72.5z" />
    <glyph glyph-name="zero.inferior" unicode="&#x2080;" 
d="M313 73q0 -42 -6 -77.5t-20 -69.5t-42 -53.5t-67 -19.5q-40 0 -68 19.5t-41.5 53.5t-19.5 69.5t-6 77.5t6 77.5t19.5 69.5t41.5 53.5t68 19.5q39 0 67 -19.5t42 -53.5t20 -69.5t6 -77.5zM280 73q0 31 -4 59.5t-13.5 60.5t-31.5 51.5t-53 19.5q-32 0 -53.5 -19.5
t-31.5 -52.5t-13.5 -61t-3.5 -58q0 -31 3.5 -59t13.5 -60.5t31.5 -52t53.5 -19.5q31 0 53 19.5t31.5 51.5t13.5 60.5t4 59.5z" />
    <glyph glyph-name="one.inferior" unicode="&#x2081;" 
d="M174 -137v382l-86 -62l-20 24l110 76h29v-420h-33z" />
    <glyph glyph-name="two.inferior" unicode="&#x2082;" 
d="M304 -137h-257v31l158 169q37 40 51 65.5t14 52.5q0 39 -24.5 61t-62.5 22q-73 0 -92 -74l-32 7q11 47 44.5 71.5t79.5 24.5q55 0 87.5 -30t32.5 -79q0 -39 -16.5 -68.5t-61.5 -77.5l-137 -146h216v-29z" />
    <glyph glyph-name="three.inferior" unicode="&#x2083;" 
d="M166 -147q-90 0 -127 78l30 11q27 -60 97 -60q43 0 70 24.5t27 69.5t-33.5 69t-79.5 24h-20v28h19q47 0 73.5 24.5t26.5 62.5t-24 59.5t-59 21.5q-55 0 -82 -45l-26 15q37 58 108 58q54 0 85 -28.5t31 -79.5q0 -39 -22.5 -65.5t-59.5 -34.5v-2q45 -7 70.5 -35.5
t25.5 -72.5q0 -58 -36.5 -90t-93.5 -32z" />
    <glyph glyph-name="four.inferior" unicode="&#x2084;" 
d="M256 -137h-31v104h-192v31l181 285h42v-287h65v-29h-65v-104zM225 -4v246h-3l-156 -246h159z" />
    <glyph glyph-name="five.inferior" unicode="&#x2085;" 
d="M306 -8q0 -64 -39.5 -101.5t-95.5 -37.5q-85 0 -122 69l28 13q33 -53 94 -53q42 0 72.5 29t30.5 80q0 49 -29.5 78.5t-79.5 29.5q-41 0 -86 -26l4 210h205v-29h-173l-3 -139q33 12 60 12q61 0 97.5 -37.5t36.5 -97.5z" />
    <glyph glyph-name="six.inferior" unicode="&#x2086;" 
d="M310 -16q0 -57 -37.5 -94t-94.5 -37q-58 0 -95 36.5t-37 94.5q0 48 38 113l110 186h39l-113 -185l1 -1q32 20 63 20q55 0 90.5 -37t35.5 -96zM277 -16q0 46 -27 75.5t-70 29.5q-42 0 -71.5 -30t-29.5 -75t27.5 -73.5t71.5 -28.5t71.5 28.5t27.5 73.5z" />
    <glyph glyph-name="seven.inferior" unicode="&#x2087;" 
d="M131 -137h-36l172 391h-205v29h239v-27z" />
    <glyph glyph-name="eight.inferior" unicode="&#x2088;" 
d="M310 -24q0 -56 -37.5 -89.5t-93.5 -33.5q-57 0 -94.5 33.5t-37.5 89.5q0 37 21 67t58 44v1q-31 14 -47.5 40.5t-16.5 55.5q0 48 33.5 78.5t83.5 30.5q49 0 82 -30.5t33 -78.5q0 -30 -16.5 -56t-46.5 -40v-1q37 -14 58 -44t21 -67zM179 264q-36 0 -60 -22.5t-24 -57.5
t24 -59t60 -24q35 0 59 24.5t24 58.5q0 35 -23.5 57.5t-59.5 22.5zM179 73q-43 0 -71.5 -27.5t-28.5 -68.5q0 -42 27.5 -68.5t72.5 -26.5t72 26.5t27 68.5t-28.5 69t-70.5 27z" />
    <glyph glyph-name="nine.inferior" unicode="&#x2089;" 
d="M310 161q0 -46 -38 -111l-111 -187h-38l114 187l-1 1q-25 -20 -64 -20q-54 0 -90 36.5t-36 93.5t37.5 94.5t94.5 37.5q58 0 95 -37t37 -95zM277 161q0 45 -28 74t-71 29q-44 0 -71.5 -29t-27.5 -74q0 -44 27 -73t70 -29q42 0 71.5 29.5t29.5 72.5z" />
    <glyph glyph-name="Euro" unicode="&#x20ac;" horiz-adv-x="566" 
d="M523 695l-14 -33q-56 32 -133 32q-94 0 -159 -63t-89 -179h327l-10 -30h-321q-5 -33 -5 -74q0 -45 3 -62h282l-10 -30h-269q18 -110 86 -176t162 -66q87 0 146 44l16 -30q-65 -47 -169 -47q-113 0 -186.5 78.5t-92.5 196.5h-69l12 30h53q-3 16 -3 62q0 47 4 74h-64l10 30
h59q26 132 103.5 203.5t185.5 71.5q86 0 145 -32z" />
    <glyph glyph-name="afii61289" unicode="&#x2113;" horiz-adv-x="500" 
d="M382 53l14 -18q-49 -49 -110 -49q-48 0 -78.5 29t-30.5 90v149l-60 -69h-2l-15 19l77 83v269q0 80 29.5 122.5t74.5 42.5q40 0 65 -31t25 -87q0 -141 -161 -324v-169q0 -52 24 -74t58 -22q48 0 88 39h2zM342 600q0 43 -17.5 68.5t-43.5 25.5q-30 0 -50.5 -33.5
t-20.5 -100.5v-247q132 157 132 287z" />
    <glyph glyph-name="trademark" unicode="&#x2122;" horiz-adv-x="1000" 
d="M393 708v-30h-134v-382h-34v382h-134v30h302zM902 708v-412h-33v377h-2l-160 -377h-21l-158 377h-2v-377h-33v412h54l150 -358l151 358h54z" />
    <glyph glyph-name="Omega" unicode="&#x2126;" horiz-adv-x="740" 
d="M670 0h-223v166q90 17 138.5 86t48.5 166q0 115 -78 192.5t-191 77.5t-191 -77.5t-78 -192.5q0 -95 48.5 -165t138.5 -87v-166h-223v32h194v109q-90 26 -142 102.5t-52 174.5q0 128 90 215.5t215 87.5q127 0 216 -87t89 -216q0 -98 -51.5 -174.5t-142.5 -102.5v-109h194
v-32z" />
    <glyph glyph-name="estimated" unicode="&#x212e;" horiz-adv-x="605" 
d="M561 259h-404v-181q59 -59 145 -59q63 0 109 28.5t84 91.5l35 -21q-46 -73 -98 -104t-130 -31q-115 0 -186.5 79t-71.5 197q0 119 71 197.5t187 78.5q115 0 187 -77t72 -199zM157 295h291v145q-63 60 -147 60t-144 -60v-145z" />
    <glyph glyph-name="partialdiff" unicode="&#x2202;" horiz-adv-x="481" 
d="M222 -15q-80 0 -132.5 64.5t-52.5 156.5q0 97 51 154t131 57q55 0 102 -28.5t77 -77.5q2 54 2 73q0 137 -51.5 223t-142.5 86q-57 0 -111 -42l-18 24q58 49 127 49q81 0 134 -51t74 -128.5t21 -179.5q0 -190 -57 -285t-154 -95zM223 16q45 0 79.5 26.5t52.5 68.5
t27.5 83.5t11.5 82.5q-71 108 -171 108q-71 0 -110.5 -53t-39.5 -126q0 -72 40 -131t110 -59z" />
    <glyph glyph-name="Delta" unicode="&#x2206;" horiz-adv-x="661" 
d="M631 0h-599l275 712h44zM581 33l-252 645l-250 -645h502z" />
    <glyph glyph-name="product" unicode="&#x220f;" horiz-adv-x="706" 
d="M621 -214h-36v967h-464v-967h-35v1000h535v-1000z" />
    <glyph glyph-name="summation" unicode="&#x2211;" horiz-adv-x="596" 
d="M557 -214h-518v32l336 471l-322 464v33h493v-33h-449l324 -464l-338 -470h474v-33z" />
    <glyph glyph-name="minus" unicode="&#x2212;" horiz-adv-x="666" 
d="M573 321v-31h-480v31h480z" />
    <glyph glyph-name="uni2215" unicode="&#x2215;" horiz-adv-x="100" 
d="M273 721l-443 -749l-27 16l443 749z" />
    <glyph glyph-name="uni2219" unicode="&#x2219;" horiz-adv-x="246" 
d="M156 273q0 -14 -9.5 -24t-23.5 -10t-23 10t-9 24t9 24t23 10t23.5 -10t9.5 -24z" />
    <glyph glyph-name="radical" unicode="&#x221a;" horiz-adv-x="481" 
d="M480 786l-209 -1001h-42l-167 360l-57 -28l-13 29l87 41l166 -361l200 960h35z" />
    <glyph glyph-name="infinity" unicode="&#x221e;" horiz-adv-x="728" 
d="M189 111q-55 0 -90.5 38.5t-35.5 98.5q0 61 34.5 99.5t90.5 38.5q31 0 67 -21t59 -42t56 -55q32 34 54.5 55t59 42t67.5 21q55 0 90.5 -38.5t35.5 -98.5q0 -61 -34.5 -99.5t-90.5 -38.5q-79 0 -182 116q-105 -116 -181 -116zM189 141q34 0 72 26t89 80q-54 56 -91 82.5
t-71 26.5q-43 0 -68 -31.5t-25 -77.5q0 -44 25 -75t69 -31zM553 141q43 0 68 31t25 75q0 47 -25 78t-69 31q-34 0 -71 -26.5t-91 -82.5q56 -56 91.5 -81t71.5 -25z" />
    <glyph glyph-name="integral" unicode="&#x222b;" horiz-adv-x="537" 
d="M162 -207q-49 0 -49 35q0 11 7 17.5t17 6.5q11 0 22.5 -16.5t21.5 -16.5q24 0 36.5 50t12.5 120v358q0 249 4 273q4 34 8.5 56.5t14.5 48.5t29.5 39.5t46.5 13.5q22 0 37 -9t15 -27q0 -11 -7.5 -18t-17.5 -7q-12 0 -23.5 17t-21.5 17q-25 0 -37 -52.5t-12 -125.5v-509
q0 -130 -8 -170q-20 -101 -96 -101z" />
    <glyph glyph-name="approxequal" unicode="&#x2248;" horiz-adv-x="666" 
d="M76 279h-26q16 118 119 118q45 0 144 -35t135 -35q80 0 95 85h26q-4 -49 -34.5 -83.5t-87.5 -34.5q-43 0 -141 35t-132 35q-83 0 -98 -85zM76 96h-26q16 119 119 119q46 0 144.5 -35.5t134.5 -35.5q80 0 95 86h26q-16 -119 -122 -119q-44 0 -141.5 35.5t-131.5 35.5
q-82 0 -98 -86z" />
    <glyph glyph-name="notequal" unicode="&#x2260;" horiz-adv-x="666" 
d="M572 181h-281l-82 -163l-28 15l76 148h-163v32h179l73 145h-252v32h268l74 147l29 -14l-67 -133h174v-32h-191l-73 -145h264v-32z" />
    <glyph glyph-name="lessequal" unicode="&#x2264;" horiz-adv-x="666" 
d="M572 80l-478 213v36l478 213v-34l-444 -197l444 -197v-34zM572 2h-478v32h478v-32z" />
    <glyph glyph-name="greaterequal" unicode="&#x2265;" horiz-adv-x="666" 
d="M572 293l-478 -213v34l444 197l-444 197v34l478 -213v-36zM572 2h-478v32h478v-32z" />
    <glyph glyph-name="lozenge" unicode="&#x25ca;" horiz-adv-x="593" 
d="M479 356l-166 -391h-36l-163 391l163 391h36zM442 356l-147 361l-146 -361l146 -361z" />
    <glyph glyph-name="f_i" unicode="&#xf001;" horiz-adv-x="509" 
d="M274 462v-30h-120v-432h-36v432h-98v30h97v154q0 79 36.5 115.5t95.5 36.5q28 0 49 -6l-6 -31q-21 6 -43 6q-51 0 -73 -34.5t-22 -88.5v-152h120zM411 462v-462h-36v462h36zM423 656q0 -14 -9 -23.5t-21 -9.5q-13 0 -22 9.5t-9 23.5t9.5 23t21.5 9t21 -9t9 -23z" />
    <glyph glyph-name="f_l" unicode="&#xf002;" horiz-adv-x="509" 
d="M274 462v-30h-120v-432h-36v432h-98v30h97v154q0 79 36.5 115.5t95.5 36.5q28 0 49 -6l-6 -31q-21 6 -43 6q-51 0 -73 -34.5t-22 -88.5v-152h120zM411 756v-756h-37v756h37z" />
    <glyph glyph-name="uniF8FF" unicode="&#xf8ff;" horiz-adv-x="512" 
d="M278 117h-56v67h56v-67zM271 234h-46l-2 17q0 54 11 78.5t48 61.5q32 32 41 47.5t9 35.5q0 36 -22.5 60.5t-53.5 24.5q-71 0 -82 -95l-50 8q6 69 42 103t93 34q55 0 89.5 -36t34.5 -95q0 -34 -13 -60t-50 -60q-37 -32 -43 -49.5t-6 -74.5zM50 50h412v617h-412v-617z
M0 718h512v-718h-512v718z" />
    <glyph glyph-name="grave.cap" horiz-adv-x="240" 
d="M128 764l-117 144h47l102 -144h-32z" />
    <glyph glyph-name="acute.cap" horiz-adv-x="240" 
d="M229 908l-117 -144h-32l102 144h47z" />
    <glyph glyph-name="circumflex.cap" horiz-adv-x="240" 
d="M142 908l105 -144h-36l-91 125l-91 -125h-36l105 144h44z" />
    <glyph glyph-name="caron.cap" horiz-adv-x="240" 
d="M247 908l-105 -144h-44l-105 144h36l91 -125l91 125h36z" />
    <glyph glyph-name="caron.alt" horiz-adv-x="240" 
d="M192 708l-64 -185h-29l55 185h38z" />
    <glyph glyph-name="tilde.cap" horiz-adv-x="240" 
d="M13 787h-24q12 81 67 81q26 0 67 -24q40 -24 61 -24q35 0 43 49h25q-11 -79 -68 -79q-26 0 -66 24q-39 24 -62 24q-31 0 -43 -51z" />
    <glyph glyph-name="dieresis.cap" horiz-adv-x="240" 
d="M5 855q0 14 9.5 23.5t22.5 9.5q14 0 23 -9.5t9 -23.5t-9.5 -23.5t-22.5 -9.5t-22.5 9.5t-9.5 23.5zM171 855q0 14 9 23.5t23 9.5q13 0 22.5 -9.5t9.5 -23.5t-9.5 -23.5t-22.5 -9.5q-14 0 -23 9.5t-9 23.5z" />
    <glyph glyph-name="macron.cap" horiz-adv-x="240" 
d="M242 845v-30h-244v30h244z" />
    <glyph glyph-name="breve.cap" horiz-adv-x="240" 
d="M226 901h26q-8 -62 -43 -95t-90 -33t-90 33.5t-41 94.5h26q9 -47 37 -72t68 -25q86 0 107 97z" />
    <glyph glyph-name="ring.cap" horiz-adv-x="240" 
d="M216 850q0 -40 -28.5 -67.5t-67.5 -27.5t-67.5 27.5t-28.5 67.5q0 39 28.5 67t67.5 28t67.5 -28t28.5 -67zM192 850q0 30 -21 51t-51 21t-51 -21t-21 -51t21 -51t51 -21t51 21t21 51z" />
    <glyph glyph-name="hungarumlaut.cap" horiz-adv-x="240" 
d="M9 763l103 145h47l-118 -145h-32zM143 763l102 145h47l-117 -145h-32z" />
    <glyph glyph-name="dotaccent.cap" horiz-adv-x="240" 
d="M151 856q0 -14 -9.5 -23.5t-21.5 -9.5t-21.5 9.5t-9.5 23.5t9.5 23t21.5 9t21.5 -9t9.5 -23z" />
    <glyph glyph-name="commaaccent" horiz-adv-x="240" 
d="M160 -45l-64 -185h-29l54 185h39z" />
    <glyph glyph-name="commaaccent.alt" horiz-adv-x="240" 
d="M88 564l63 185h30l-55 -185h-38z" />
    <glyph glyph-name="zero.denominator" 
d="M313 210q0 -42 -6 -77.5t-20 -69.5t-42 -53.5t-67 -19.5q-40 0 -68 19.5t-41.5 53.5t-19.5 69.5t-6 77.5t6 77.5t19.5 69.5t41.5 53.5t68 19.5q39 0 67 -19.5t42 -53.5t20 -69.5t6 -77.5zM280 210q0 31 -4 59.5t-13.5 60.5t-31.5 51.5t-53 19.5q-32 0 -53.5 -19.5
t-31.5 -52.5t-13.5 -61t-3.5 -58q0 -31 3.5 -59t13.5 -60.5t31.5 -52t53.5 -19.5q31 0 53 19.5t31.5 51.5t13.5 60.5t4 59.5z" />
    <glyph glyph-name="one.denominator" 
d="M174 0v382l-86 -62l-20 24l110 77h29v-421h-33z" />
    <glyph glyph-name="two.denominator" 
d="M304 0h-257v31l158 169q65 70 65 118q0 39 -24.5 61t-62.5 22q-73 0 -92 -74l-32 7q11 47 44.5 71.5t79.5 24.5q55 0 87.5 -30t32.5 -78q0 -40 -16.5 -69.5t-61.5 -76.5l-137 -147h216v-29z" />
    <glyph glyph-name="three.denominator" 
d="M166 -10q-90 0 -127 78l30 11q27 -60 97 -60q43 0 70 24.5t27 69.5t-33.5 69t-79.5 24h-20v28h19q48 0 74 24.5t26 63.5q0 38 -24 59t-59 21q-55 0 -82 -45l-26 16q38 57 108 57q54 0 85 -28.5t31 -79.5q0 -39 -22.5 -65.5t-59.5 -34.5v-1q45 -8 70.5 -36.5t25.5 -72.5
q0 -57 -36.5 -89.5t-93.5 -32.5z" />
    <glyph glyph-name="four.denominator" 
d="M256 0h-31v104h-192v31l181 285h42v-287h65v-29h-65v-104zM225 133v246h-3l-156 -246h159z" />
    <glyph glyph-name="five.denominator" 
d="M306 129q0 -64 -39.5 -101.5t-95.5 -37.5q-85 0 -122 69l28 13q33 -53 94 -53q42 0 72.5 29t30.5 80q0 49 -29.5 78.5t-79.5 29.5q-41 0 -86 -26l4 210h205v-29h-173l-3 -139q33 12 60 12q61 0 97.5 -37.5t36.5 -97.5z" />
    <glyph glyph-name="six.denominator" 
d="M310 121q0 -57 -37.5 -94t-94.5 -37q-58 0 -95 36.5t-37 94.5q0 48 38 113l110 186h39l-113 -185l1 -1q32 20 63 20q55 0 90.5 -37t35.5 -96zM277 121q0 46 -27 75.5t-70 29.5q-42 0 -71.5 -30t-29.5 -75t27.5 -73.5t71.5 -28.5t71.5 28.5t27.5 73.5z" />
    <glyph glyph-name="seven.denominator" 
d="M131 0h-36l172 391h-205v29h239v-27z" />
    <glyph glyph-name="eight.denominator" 
d="M310 113q0 -56 -37.5 -89.5t-93.5 -33.5q-57 0 -94.5 33.5t-37.5 89.5q0 37 21 67t58 44v1q-31 14 -47.5 40.5t-16.5 55.5q0 48 33.5 78.5t83.5 30.5q49 0 82 -30.5t33 -78.5q0 -30 -16.5 -56t-46.5 -40v-1q37 -14 58 -44t21 -67zM179 401q-36 0 -60 -22.5t-24 -57.5
t24 -59t60 -24q35 0 59 24.5t24 58.5q0 35 -23.5 57.5t-59.5 22.5zM179 210q-43 0 -71.5 -27.5t-28.5 -68.5q0 -42 27.5 -68.5t72.5 -26.5t72 26.5t27 68.5t-28.5 69t-70.5 27z" />
    <glyph glyph-name="nine.denominator" 
d="M310 298q0 -46 -38 -111l-111 -187h-38l114 187l-1 1q-25 -20 -64 -20q-54 0 -90 36.5t-36 93.5t37.5 94.5t94.5 37.5q58 0 95 -37t37 -95zM277 298q0 45 -28 74t-71 29q-44 0 -71.5 -29t-27.5 -74q0 -44 27 -73t70 -29q42 0 71.5 29.5t29.5 72.5z" />
    <glyph glyph-name="zero.numerator" 
d="M313 498q0 -42 -6 -77.5t-20 -69.5t-42 -53.5t-67 -19.5q-40 0 -68 19.5t-41.5 53.5t-19.5 69.5t-6 77.5t6 77.5t19.5 69.5t41.5 53.5t68 19.5q39 0 67 -19.5t42 -53.5t20 -69.5t6 -77.5zM280 498q0 31 -4 59.5t-13.5 60.5t-31.5 51.5t-53 19.5q-32 0 -53.5 -19.5
t-31.5 -52.5t-13.5 -61t-3.5 -58q0 -31 3.5 -59t13.5 -60.5t31.5 -52t53.5 -19.5q31 0 53 19.5t31.5 51.5t13.5 60.5t4 59.5z" />
    <glyph glyph-name="one.numerator" 
d="M174 287v382l-86 -62l-20 24l110 77h29v-421h-33z" />
    <glyph glyph-name="two.numerator" 
d="M304 287h-257v32l158 169q37 40 51 65.5t14 52.5q0 39 -24.5 60.5t-62.5 21.5q-73 0 -92 -73l-32 7q11 47 44.5 71.5t79.5 24.5q55 0 87.5 -30t32.5 -79q0 -39 -17 -68t-63 -78l-137 -146h218v-30z" />
    <glyph glyph-name="three.numerator" 
d="M166 278q-90 0 -127 78l30 10q13 -29 40 -44t57 -15q43 0 70 24.5t27 68.5q0 45 -33.5 69.5t-79.5 24.5h-20v28h19q48 0 74 24t26 63q0 38 -24 59.5t-59 21.5q-56 0 -82 -46l-26 16q37 58 108 58q54 0 85 -29t31 -80q0 -39 -22.5 -65.5t-59.5 -34.5v-1q45 -8 70.5 -36.5
t25.5 -71.5q0 -58 -36.5 -90t-93.5 -32z" />
    <glyph glyph-name="four.numerator" 
d="M256 288h-31v104h-192v31l181 285h42v-287h65v-29h-65v-104zM225 421v246h-3l-156 -246h159z" />
    <glyph glyph-name="five.numerator" 
d="M306 417q0 -64 -39.5 -101.5t-95.5 -37.5q-85 0 -122 69l28 13q33 -53 94 -53q42 0 72.5 29t30.5 80q0 49 -29.5 78.5t-79.5 29.5q-41 0 -86 -26l4 210h205v-29h-173l-3 -139q33 12 60 12q61 0 97.5 -37.5t36.5 -97.5z" />
    <glyph glyph-name="six.numerator" 
d="M310 409q0 -57 -37.5 -94t-94.5 -37q-58 0 -95 36.5t-37 94.5q0 48 38 113l110 186h39l-113 -185l1 -1q32 20 63 20q55 0 90.5 -37t35.5 -96zM277 409q0 46 -27 75.5t-70 29.5q-42 0 -71.5 -30t-29.5 -75t27.5 -73.5t71.5 -28.5t71.5 28.5t27.5 73.5z" />
    <glyph glyph-name="seven.numerator" 
d="M131 288h-36l172 391h-205v29h239v-27z" />
    <glyph glyph-name="eight.numerator" 
d="M310 401q0 -56 -37.5 -89.5t-93.5 -33.5q-57 0 -94.5 33.5t-37.5 89.5q0 37 21 67t58 44v1q-31 14 -47.5 40.5t-16.5 55.5q0 48 33.5 78.5t83.5 30.5q49 0 82 -30.5t33 -78.5q0 -30 -16.5 -56t-46.5 -40v-1q37 -14 58 -44t21 -67zM179 689q-36 0 -60 -22.5t-24 -57.5
t24 -59t60 -24q35 0 59 24.5t24 58.5q0 35 -23.5 57.5t-59.5 22.5zM179 498q-43 0 -71.5 -27.5t-28.5 -68.5q0 -42 27.5 -68.5t72.5 -26.5t72 26.5t27 68.5t-28.5 69t-70.5 27z" />
    <glyph glyph-name="nine.numerator" 
d="M310 586q0 -46 -38 -111l-111 -187h-38l114 187l-1 1q-25 -20 -64 -20q-54 0 -90 36.5t-36 93.5t37.5 94.5t94.5 37.5q58 0 95 -37t37 -95zM277 586q0 45 -28 74t-71 29q-44 0 -71.5 -29t-27.5 -74q0 -44 27 -73t70 -29q42 0 71.5 29.5t29.5 72.5z" />
    <glyph glyph-name="exclam.sc" horiz-adv-x="261" 
d="M149 523v-380h-37v380h37zM163 28q0 -14 -9 -24t-23 -10t-23.5 10t-9.5 24t9.5 24t23.5 10t23 -10t9 -24z" />
    <glyph glyph-name="dollar.sc" horiz-adv-x="470" 
d="M218 30v223q-64 20 -98.5 52t-34.5 89q0 56 38.5 90.5t94.5 38.5v54h29v-54q84 0 132 -56l-23 -21q-48 48 -109 48v-213q70 -21 107 -55t37 -91q0 -59 -41 -96t-103 -39v-54h-29v54q-89 5 -146 68l21 22q54 -58 125 -60zM247 246v-216q47 2 77.5 29.5t30.5 75.5
q0 45 -27.5 68.5t-80.5 42.5zM218 290v204q-40 -4 -69.5 -29.5t-29.5 -69.5q0 -77 99 -105z" />
    <glyph glyph-name="percent.sc" horiz-adv-x="681" 
d="M311 413q0 -52 -36 -87.5t-88 -35.5q-51 0 -86.5 35.5t-35.5 87.5t35.5 88t86.5 36q52 0 88 -36t36 -88zM278 413q0 39 -26.5 66t-64.5 27q-37 0 -63.5 -27t-26.5 -66q0 -40 26 -66t64 -26q39 0 65 25.5t26 66.5zM617 110q0 -52 -36 -87.5t-87 -35.5t-87 35.5t-36 87.5
t36 88t87 36t87 -36t36 -88zM584 110q0 40 -26 66.5t-64 26.5t-64 -26.5t-26 -66.5q0 -41 25.5 -66.5t64.5 -25.5t64.5 25.5t25.5 66.5zM519 536l-333 -564l-27 15l334 565z" />
    <glyph glyph-name="ampersand.sc" horiz-adv-x="584" 
d="M512 275l-91 -164l105 -111h-50l-75 80q-63 -93 -166 -93q-66 0 -110 39.5t-44 106.5q0 98 120 157q-62 68 -62 131q0 51 34 83.5t88 32.5t86 -29.5t32 -77.5q0 -46 -30.5 -80.5t-93.5 -66.5l141 -148l76 140h40zM343 427q0 35 -23.5 57t-59.5 22t-60.5 -24t-24.5 -62
q0 -52 58 -114q110 54 110 121zM377 105l-154 162q-104 -48 -104 -134q0 -53 33.5 -84t85.5 -31q85 0 139 87z" />
    <glyph glyph-name="parenleft.sc" horiz-adv-x="230" 
d="M79 261q0 -80 26.5 -166.5t69.5 -145.5l-30 -17q-48 66 -74.5 153t-26.5 176q0 90 26.5 177t74.5 153l30 -17q-43 -59 -69.5 -146.5t-26.5 -166.5z" />
    <glyph glyph-name="parenright.sc" horiz-adv-x="230" 
d="M185 261q0 -89 -27 -175.5t-73 -153.5l-30 17q44 59 69.5 145t25.5 167t-26 167.5t-69 145.5l30 17q46 -67 73 -154.5t27 -175.5z" />
    <glyph glyph-name="bracketleft.sc" horiz-adv-x="230" 
d="M171 -66h-117v655h117v-30h-82v-595h82v-30z" />
    <glyph glyph-name="backslash.sc" horiz-adv-x="282" 
d="M270 -1l-32 -11l-226 540l31 11z" />
    <glyph glyph-name="bracketright.sc" horiz-adv-x="230" 
d="M176 -66h-117v30h82v595h-82v30h117v-655z" />
    <glyph glyph-name="braceleft.sc" horiz-adv-x="230" 
d="M184 -66h-42q-82 0 -82 95v135q0 46 -14 64t-43 18v31q29 0 43 18t14 64v134q0 96 82 96h42v-30h-39q-50 0 -50 -68v-132q0 -85 -55 -97v-2q55 -12 55 -97v-132q0 -67 50 -67h39v-30z" />
    <glyph glyph-name="slash.sc" horiz-adv-x="282" 
d="M44 -12l-32 11l227 540l31 -11z" />
    <glyph glyph-name="braceright.sc" horiz-adv-x="230" 
d="M88 -66h-43v30h39q51 0 51 68v132q0 85 55 97v2q-55 12 -55 97v132q0 67 -51 67h-39v30h43q82 0 82 -95v-135q0 -46 14 -64t43 -18v-31q-29 0 -43 -18t-14 -64v-134q0 -96 -82 -96z" />
    <glyph glyph-name="zero.sc" horiz-adv-x="470" 
d="M235 537q49 0 84 -24.5t53 -67t26 -88.5t8 -98q0 -51 -8 -96t-26 -86.5t-53 -65.5t-84 -24t-84 24t-53 65.5t-26 86.5t-8 96q0 52 8 98t26 88.5t53 67t84 24.5zM235 504q-39 0 -67 -25t-41 -66t-18.5 -78t-5.5 -76q0 -38 5.5 -74.5t18.5 -76t41 -64t67 -24.5t67 24.5
t41 64t18.5 76t5.5 74.5q0 39 -5.5 76t-18.5 78t-41 66t-67 25z" />
    <glyph glyph-name="one.sc" horiz-adv-x="470" 
d="M280 523v-523h-36v477l-103 -88l-22 27l128 107h33z" />
    <glyph glyph-name="two.sc" horiz-adv-x="470" 
d="M401 33v-33h-313v38l192 212q77 85 78 148q0 49 -30 77t-77 28q-88 0 -112 -91l-36 10q14 54 53 84.5t95 30.5q65 0 105 -37t40 -100q0 -42 -22.5 -82t-71.5 -95l-171 -190h270z" />
    <glyph glyph-name="three.sc" horiz-adv-x="470" 
d="M222 -13q-119 0 -165 102l36 15q37 -84 129 -84q59 0 93 34t34 86q0 57 -42.5 87t-100.5 30h-24v33h24q52 0 89 28t37 81q0 46 -32.5 75.5t-77.5 29.5q-68 0 -106 -60l-31 18q48 75 138 75q63 0 104.5 -37.5t41.5 -99.5q0 -44 -25.5 -78t-73.5 -45l-3 -3q56 -11 87 -48
t31 -85q0 -68 -43 -111t-120 -43z" />
    <glyph glyph-name="four.sc" horiz-adv-x="470" 
d="M328 523v-359h82v-33h-82v-131h-35v131h-243v35l233 357h45zM293 164v313h-2l-202 -313h204z" />
    <glyph glyph-name="five.sc" horiz-adv-x="470" 
d="M368 523v-33h-229l-6 -180q39 16 81 16q79 0 126.5 -44t47.5 -121q0 -79 -49.5 -126.5t-124.5 -47.5q-109 0 -155 83l34 18q35 -68 120 -68q58 0 98 38t40 101q0 61 -38 98t-106 37q-53 0 -109 -32l6 261h264z" />
    <glyph glyph-name="six.sc" horiz-adv-x="470" 
d="M237 -13q-74 0 -121.5 45.5t-47.5 118.5q0 61 52 144l143 228h43l-156 -241l2 -1q38 31 92 31q68 0 114 -45t46 -116t-46.5 -117.5t-120.5 -46.5zM237 20q57 0 93.5 37t36.5 94q0 55 -35 92.5t-92 37.5t-96 -37t-39 -93t37.5 -93.5t94.5 -37.5z" />
    <glyph glyph-name="seven.sc" horiz-adv-x="470" 
d="M389 523v-34l-214 -489h-41l217 490h-260v33h298z" />
    <glyph glyph-name="eight.sc" horiz-adv-x="470" 
d="M379 400q0 -40 -21.5 -72.5t-62.5 -47.5v-2q52 -17 78 -54t26 -86q0 -68 -46.5 -109.5t-117.5 -41.5q-70 0 -117 41.5t-47 109.5q0 49 27 87t78 53v2q-42 15 -63.5 47.5t-21.5 72.5q0 60 41 98.5t103 38.5t103 -38.5t41 -98.5zM108 141q0 -52 35.5 -86.5t91.5 -34.5
q57 0 92 34.5t35 86.5q0 51 -36.5 85.5t-90.5 34.5q-53 0 -90 -34.5t-37 -85.5zM128 399q0 -44 29.5 -74t77.5 -30q47 0 77.5 29t30.5 75q0 45 -30 74.5t-78 29.5t-77.5 -29.5t-29.5 -74.5z" />
    <glyph glyph-name="nine.sc" horiz-adv-x="470" 
d="M166 0l156 243h-1q-1 0 -2 1q-38 -31 -90 -31q-67 0 -112.5 44.5t-45.5 115.5t46.5 117.5t119.5 46.5t120 -46t47 -119q0 -58 -52 -144l-143 -228h-43zM234 245q56 0 94.5 36.5t38.5 92.5t-36.5 92.5t-93.5 36.5t-93 -36t-36 -93q0 -55 35 -92t91 -37z" />
    <glyph glyph-name="question.sc" horiz-adv-x="318" 
d="M139 155v41q2 57 38 98l18 20q21 23 30 34t16 31t7 45q0 45 -22.5 72t-60.5 27q-73 0 -90 -96l-36 7q10 59 43 91t86 32q56 0 87 -36t31 -95q0 -44 -15 -71.5t-45 -55.5q-31 -29 -41 -52.5t-10 -59.5v-32h-36zM161 -5q-14 0 -22.5 9t-8.5 22q0 14 8.5 23.5t22.5 9.5
q13 0 22 -9.5t9 -23.5q0 -13 -9 -22t-22 -9z" />
    <glyph glyph-name="a.sc" horiz-adv-x="519" 
d="M118 141l-61 -141h-39l227 523h35l221 -523h-41l-58 141h-284zM262 482l-131 -308h257z" />
    <glyph glyph-name="b.sc" horiz-adv-x="497" 
d="M98 0v523h154q67 0 114.5 -31t47.5 -97q0 -49 -27 -78.5t-69 -40.5v-2q49 -7 84.5 -40.5t35.5 -91.5q0 -73 -52 -107.5t-128 -34.5h-160zM135 490v-201h117q52 0 88.5 26t36.5 77q0 98 -136 98h-106zM135 256v-223h117q66 0 107.5 26.5t41.5 82.5q0 58 -40 86t-100 28
h-126z" />
    <glyph glyph-name="c.sc" horiz-adv-x="556" 
d="M492 91l25 -24q-77 -80 -189 -80q-118 0 -193.5 77.5t-75.5 197.5t76 197.5t194 77.5q113 0 176 -69l-24 -26q-58 61 -152 61q-103 0 -167.5 -69.5t-64.5 -171.5t64 -172t167 -70q96 0 164 71z" />
    <glyph glyph-name="d.sc" horiz-adv-x="600" 
d="M98 0v523h159q121 0 202.5 -67t81.5 -196q0 -127 -81.5 -193.5t-202.5 -66.5h-159zM135 490v-457h114q114 0 183.5 59.5t69.5 167.5q0 109 -70 169.5t-183 60.5h-114z" />
    <glyph glyph-name="e.sc" horiz-adv-x="484" 
d="M135 255v-222h289v-33h-326v523h315v-33h-278v-202h261v-33h-261z" />
    <glyph glyph-name="f.sc" horiz-adv-x="455" 
d="M135 251v-251h-37v523h307v-33h-270v-206h252v-33h-252z" />
    <glyph glyph-name="g.sc" horiz-adv-x="613" 
d="M510 472l-22 -26q-63 57 -156 57q-104 0 -169.5 -69.5t-65.5 -170.5q0 -102 65 -172.5t173 -70.5q90 0 153 36v180h-128v33h165v-236q-80 -46 -191 -46q-122 0 -198.5 78.5t-76.5 197.5t77 196.5t196 77.5q110 0 178 -65z" />
    <glyph glyph-name="h.sc" horiz-adv-x="594" 
d="M98 0v523h37v-237h323v237h37v-523h-37v253h-323v-253h-37z" />
    <glyph glyph-name="i.sc" horiz-adv-x="233" 
d="M135 523v-523h-37v523h37z" />
    <glyph glyph-name="j.sc" horiz-adv-x="382" 
d="M22 82l33 12q25 -73 97 -73q103 0 103 132v370h37v-376q0 -70 -34 -115t-104 -45q-52 0 -85.5 26.5t-46.5 68.5z" />
    <glyph glyph-name="k.sc" horiz-adv-x="475" 
d="M135 523v-237h2l254 237h52l-263 -240l276 -283h-53l-266 277h-2v-277h-37v523h37z" />
    <glyph glyph-name="l.sc" horiz-adv-x="400" 
d="M135 523v-490h249v-33h-286v523h37z" />
    <glyph glyph-name="m.sc" horiz-adv-x="714" 
d="M98 0v523h60l199 -465l4 6l196 459h59v-523h-37v479h-2l-207 -479h-26l-207 479h-2v-479h-37z" />
    <glyph glyph-name="n.sc" horiz-adv-x="611" 
d="M147 523l327 -471h2v471h37v-523h-48l-328 474h-2v-474h-37v523h49z" />
    <glyph glyph-name="o.sc" horiz-adv-x="663" 
d="M604 263q0 -121 -76.5 -198.5t-196.5 -77.5t-196 77.5t-76 198.5t76 197.5t196 76.5t196.5 -76.5t76.5 -197.5zM566 263q0 102 -64.5 171.5t-170.5 69.5q-105 0 -169.5 -69t-64.5 -172q0 -102 64.5 -172.5t169.5 -70.5t170 70.5t65 172.5z" />
    <glyph glyph-name="p.sc" horiz-adv-x="465" 
d="M98 0v523h154q74 0 121.5 -36.5t47.5 -109.5q0 -70 -47.5 -109t-120.5 -39h-118v-229h-37zM135 490v-229h117q57 0 94 29.5t37 86.5q0 59 -37 86t-96 27h-115z" />
    <glyph glyph-name="q.sc" horiz-adv-x="663" 
d="M626 33v-33h-300q-113 0 -190 75t-77 193q0 117 76 193t192 76q115 0 191 -76t76 -193q0 -82 -42.5 -145t-108.5 -88v-2h183zM97 268q0 -99 64.5 -167t165.5 -68q102 0 165.5 69.5t63.5 165.5q0 98 -64.5 166.5t-164.5 68.5t-165 -68t-65 -167z" />
    <glyph glyph-name="r.sc" horiz-adv-x="484" 
d="M135 251v-251h-37v523h149q75 0 124.5 -32.5t49.5 -104.5q0 -61 -40 -93t-101 -39l152 -254h-43l-147 251h-107zM135 490v-207h110q67 0 103 26.5t36 76.5q0 104 -142 104h-107z" />
    <glyph glyph-name="s.sc" horiz-adv-x="427" 
d="M364 477l-25 -23q-50 50 -116 50q-51 0 -89 -29t-38 -79q0 -42 28.5 -68t69 -40t81 -29t69 -46t28.5 -80q0 -69 -48 -107.5t-117 -38.5q-104 0 -160 69l26 25q54 -61 133 -61q53 0 91 29.5t38 80.5q0 42 -28.5 68t-69 39.5t-81 28t-69 46.5t-28.5 82q0 67 49 105t117 38
q89 0 139 -60z" />
    <glyph glyph-name="t.sc" horiz-adv-x="414" 
d="M225 490v-490h-36v490h-175v33h386v-33h-175z" />
    <glyph glyph-name="u.sc" horiz-adv-x="578" 
d="M289 -13q-101 0 -150 60t-49 150v326h37v-323q0 -78 39 -128.5t123 -50.5q83 0 122 50.5t39 128.5v323h37v-326q0 -90 -49 -150t-149 -60z" />
    <glyph glyph-name="v.sc" horiz-adv-x="476" 
d="M57 523l179 -481h2l182 481h40l-202 -523h-43l-199 523h41z" />
    <glyph glyph-name="w.sc" horiz-adv-x="750" 
d="M69 523l140 -478h2l139 478h48l142 -478h2l139 478h39l-156 -523h-46l-143 478h-2l-142 -478h-45l-156 523h39z" />
    <glyph glyph-name="x.sc" horiz-adv-x="454" 
d="M80 523l147 -222l146 222h43l-167 -249l185 -274h-44l-163 246l-163 -246h-44l184 274l-168 249h44z" />
    <glyph glyph-name="y.sc" horiz-adv-x="427" 
d="M231 227v-227h-36v227l-185 296h43l161 -264l160 264h43z" />
    <glyph glyph-name="z.sc" horiz-adv-x="465" 
d="M414 523v-35l-327 -455h332v-33h-374v35l329 455h-318v33h358z" />
    <glyph glyph-name="agrave.sc" horiz-adv-x="519" 
d="M118 141l-61 -141h-39l227 523h35l221 -523h-41l-58 141h-284zM262 482l-131 -308h257zM245 573l-117 144h47l102 -144h-32z" />
    <glyph glyph-name="aacute.sc" horiz-adv-x="519" 
d="M118 141l-61 -141h-39l227 523h35l221 -523h-41l-58 141h-284zM262 482l-131 -308h257zM397 717l-117 -144h-32l102 144h47z" />
    <glyph glyph-name="acircumflex.sc" horiz-adv-x="519" 
d="M118 141l-61 -141h-39l227 523h35l221 -523h-41l-58 141h-284zM262 482l-131 -308h257zM284 717l105 -144h-36l-91 125l-91 -125h-36l105 144h44z" />
    <glyph glyph-name="atilde.sc" horiz-adv-x="519" 
d="M118 141l-61 -141h-39l227 523h35l221 -523h-41l-58 141h-284zM262 482l-131 -308h257zM155 598h-24q5 38 22.5 59t44.5 21q21 0 70.5 -23.5t57.5 -23.5q35 0 43 49h25q-11 -79 -68 -79q-26 0 -66 24q-39 24 -62 24q-31 0 -43 -51z" />
    <glyph glyph-name="adieresis.sc" horiz-adv-x="519" 
d="M118 141l-61 -141h-39l227 523h35l221 -523h-41l-58 141h-284zM262 482l-131 -308h257zM148 665q0 13 9.5 23t22.5 10q14 0 23 -10t9 -23q0 -15 -9.5 -24.5t-22.5 -9.5t-22.5 9.5t-9.5 24.5zM314 665q0 13 9 23t23 10q13 0 22.5 -10t9.5 -23q0 -15 -9.5 -24.5t-22.5 -9.5
q-14 0 -23 9.5t-9 24.5z" />
    <glyph glyph-name="amacron.sc" horiz-adv-x="519" 
d="M118 141l-61 -141h-39l227 523h35l221 -523h-41l-58 141h-284zM262 482l-131 -308h257zM384 654v-30h-244v30h244z" />
    <glyph glyph-name="abreve.sc" horiz-adv-x="519" 
d="M118 141l-61 -141h-39l227 523h35l221 -523h-41l-58 141h-284zM262 482l-131 -308h257zM368 710h26q-8 -60 -43.5 -93.5t-89.5 -33.5q-55 0 -90 33.5t-41 93.5h26q9 -47 37 -72t68 -25q86 0 107 97z" />
    <glyph glyph-name="aring.sc" horiz-adv-x="519" 
d="M118 141l-61 -141h-39l227 523h35l221 -523h-41l-58 141h-284zM262 482l-131 -308h257zM358 659q0 -40 -28.5 -67.5t-67.5 -27.5t-67.5 27.5t-28.5 67.5q0 39 28.5 67t67.5 28t67.5 -28t28.5 -67zM334 659q0 30 -21 51t-51 21t-51 -21t-21 -51t21 -51t51 -21t51 21t21 51
z" />
    <glyph glyph-name="aogonek.sc" horiz-adv-x="519" 
d="M18 0l227 523h35l221 -523l-3 -1q-3 -1 -6.5 -2t-4.5 -1q-46 -46 -65 -73.5t-19 -57.5q0 -27 17 -43t44 -16q38 0 63 27l13 -23q-38 -33 -84 -33q-36 0 -61 22.5t-25 59.5q0 36 23 68t67 73l-58 141h-284l-61 -141h-39zM131 174h257l-126 308z" />
    <glyph glyph-name="ae.sc" horiz-adv-x="752" 
d="M403 255v-222h289v-33h-325v151h-228l-98 -151h-43l340 523h343v-33h-278v-202h261v-33h-261zM357 490l-197 -306h207v306h-10z" />
    <glyph glyph-name="cacute.sc" horiz-adv-x="556" 
d="M492 91l25 -24q-77 -80 -189 -80q-118 0 -193.5 77.5t-75.5 197.5t76 197.5t194 77.5q113 0 176 -69l-24 -26q-58 61 -152 61q-103 0 -167.5 -69.5t-64.5 -171.5t64 -172t167 -70q96 0 164 71zM422 717l-117 -144h-32l102 144h47z" />
    <glyph glyph-name="ccircumflex.sc" horiz-adv-x="556" 
d="M492 91l25 -24q-77 -80 -189 -80q-118 0 -193.5 77.5t-75.5 197.5t76 197.5t194 77.5q113 0 176 -69l-24 -26q-58 61 -152 61q-103 0 -167.5 -69.5t-64.5 -171.5t64 -172t167 -70q96 0 164 71zM352 717l105 -144h-36l-91 125l-91 -125h-36l105 144h44z" />
    <glyph glyph-name="ccaron.sc" horiz-adv-x="556" 
d="M492 91l25 -24q-77 -80 -189 -80q-118 0 -193.5 77.5t-75.5 197.5t76 197.5t194 77.5q113 0 176 -69l-24 -26q-58 61 -152 61q-103 0 -167.5 -69.5t-64.5 -171.5t64 -172t167 -70q96 0 164 71zM454 717l-105 -144h-44l-105 144h36l91 -124l91 124h36z" />
    <glyph glyph-name="cdotaccent.sc" horiz-adv-x="556" 
d="M492 91l25 -24q-77 -80 -189 -80q-118 0 -193.5 77.5t-75.5 197.5t76 197.5t194 77.5q113 0 176 -69l-24 -26q-58 61 -152 61q-103 0 -167.5 -69.5t-64.5 -171.5t64 -172t167 -70q96 0 164 71zM359 665q0 -14 -9.5 -23.5t-21.5 -9.5t-21.5 9t-9.5 24q0 14 9.5 23t21.5 9
t21.5 -9t9.5 -23z" />
    <glyph glyph-name="ccedilla.sc" horiz-adv-x="556" 
d="M492 91l25 -24q-74 -79 -185 -80l-46 -70q21 7 48 7q35 0 60 -17t25 -52q0 -44 -34.5 -63t-79.5 -19q-46 0 -91 20l8 23q35 -17 82 -17q33 0 57.5 13t24.5 43q0 47 -66 47q-37 0 -61 -13l-13 11l59 88q-109 8 -177.5 84t-68.5 190q0 120 76 197.5t194 77.5q113 0 176 -69
l-24 -26q-58 61 -152 61q-103 0 -167.5 -69.5t-64.5 -171.5t64 -172t167 -70q96 0 164 71z" />
    <glyph glyph-name="dcaron.sc" horiz-adv-x="600" 
d="M98 0v523h159q121 0 202.5 -67t81.5 -196q0 -127 -81.5 -193.5t-202.5 -66.5h-159zM135 490v-457h114q114 0 183.5 59.5t69.5 167.5q0 109 -70 169.5t-183 60.5h-114zM415 717l-105 -144h-44l-105 144h36l91 -124l91 124h36z" />
    <glyph glyph-name="dcroat.sc" horiz-adv-x="600" 
d="M20 259v30h78v234h159q121 0 202.5 -67t81.5 -196q0 -127 -81.5 -193.5t-202.5 -66.5h-159v259h-78zM135 490v-201h166v-30h-166v-226h114q114 0 183.5 59.5t69.5 167.5q0 109 -70 169.5t-183 60.5h-114z" />
    <glyph glyph-name="eth.sc" horiz-adv-x="600" 
d="M20 259v30h78v234h159q121 0 202.5 -67t81.5 -196q0 -127 -81.5 -193.5t-202.5 -66.5h-159v259h-78zM135 490v-201h166v-30h-166v-226h114q114 0 183.5 59.5t69.5 167.5q0 109 -70 169.5t-183 60.5h-114z" />
    <glyph glyph-name="egrave.sc" horiz-adv-x="484" 
d="M135 255v-222h289v-33h-326v523h315v-33h-278v-202h261v-33h-261zM251 573l-117 144h47l102 -144h-32z" />
    <glyph glyph-name="eacute.sc" horiz-adv-x="484" 
d="M135 255v-222h289v-33h-326v523h315v-33h-278v-202h261v-33h-261zM375 717l-117 -144h-32l102 144h47z" />
    <glyph glyph-name="ecircumflex.sc" horiz-adv-x="484" 
d="M135 255v-222h289v-33h-326v523h315v-33h-278v-202h261v-33h-261zM278 717l105 -144h-36l-91 125l-91 -125h-36l105 144h44z" />
    <glyph glyph-name="ecaron.sc" horiz-adv-x="484" 
d="M135 255v-222h289v-33h-326v523h315v-33h-278v-202h261v-33h-261zM384 717l-105 -144h-44l-105 144h36l91 -124l91 124h36z" />
    <glyph glyph-name="edieresis.sc" horiz-adv-x="484" 
d="M135 255v-222h289v-33h-326v523h315v-33h-278v-202h261v-33h-261zM142 665q0 13 9.5 23t22.5 10q14 0 23 -10t9 -23q0 -15 -9.5 -24.5t-22.5 -9.5t-22.5 9.5t-9.5 24.5zM308 665q0 13 9 23t23 10q13 0 22.5 -10t9.5 -23q0 -15 -9.5 -24.5t-22.5 -9.5q-14 0 -23 9.5
t-9 24.5z" />
    <glyph glyph-name="emacron.sc" horiz-adv-x="484" 
d="M135 255v-222h289v-33h-326v523h315v-33h-278v-202h261v-33h-261zM378 654v-30h-244v30h244z" />
    <glyph glyph-name="ebreve.sc" horiz-adv-x="484" 
d="M135 255v-222h289v-33h-326v523h315v-33h-278v-202h261v-33h-261zM361 710h26q-8 -60 -43.5 -93.5t-89.5 -33.5q-55 0 -90 33.5t-41 93.5h26q9 -47 37 -72t68 -25q86 0 107 97z" />
    <glyph glyph-name="edotaccent.sc" horiz-adv-x="484" 
d="M135 255v-222h289v-33h-326v523h315v-33h-278v-202h261v-33h-261zM289 665q0 -14 -9.5 -23.5t-21.5 -9.5t-21.5 9t-9.5 24q0 14 9.5 23t21.5 9t21.5 -9t9.5 -23z" />
    <glyph glyph-name="eogonek.sc" horiz-adv-x="484" 
d="M441 -167l13 -23q-38 -33 -84 -33q-36 0 -61 22.5t-25 59.5q0 25 14.5 52t31 44.5t45.5 44.5h-277v523h315v-33h-278v-202h261v-33h-261v-222h289v-33h-19q-48 -48 -68 -76.5t-20 -58.5q0 -27 17 -43t44 -16q38 0 63 27z" />
    <glyph glyph-name="gcircumflex.sc" horiz-adv-x="613" 
d="M510 472l-22 -26q-63 57 -156 57q-104 0 -169.5 -69.5t-65.5 -170.5q0 -102 65 -172.5t173 -70.5q90 0 153 36v180h-128v33h165v-236q-80 -46 -191 -46q-122 0 -198.5 78.5t-76.5 197.5t77 196.5t196 77.5q110 0 178 -65zM356 717l105 -144h-36l-91 125l-91 -125h-36
l105 144h44z" />
    <glyph glyph-name="gbreve.sc" horiz-adv-x="613" 
d="M510 472l-22 -26q-63 57 -156 57q-104 0 -169.5 -69.5t-65.5 -170.5q0 -102 65 -172.5t173 -70.5q90 0 153 36v180h-128v33h165v-236q-80 -46 -191 -46q-122 0 -198.5 78.5t-76.5 197.5t77 196.5t196 77.5q110 0 178 -65zM439 710h26q-8 -60 -43.5 -93.5t-89.5 -33.5
q-55 0 -90 33.5t-41 93.5h26q9 -47 37 -72t68 -25q86 0 107 97z" />
    <glyph glyph-name="gdotaccent.sc" horiz-adv-x="613" 
d="M510 472l-22 -26q-63 57 -156 57q-104 0 -169.5 -69.5t-65.5 -170.5q0 -102 65 -172.5t173 -70.5q90 0 153 36v180h-128v33h165v-236q-80 -46 -191 -46q-122 0 -198.5 78.5t-76.5 197.5t77 196.5t196 77.5q110 0 178 -65zM362 665q0 -14 -9.5 -23.5t-21.5 -9.5
q-13 0 -22 9t-9 24q0 14 9.5 23t21.5 9t21.5 -9t9.5 -23z" />
    <glyph glyph-name="gcommaaccent.sc" horiz-adv-x="613" 
d="M510 472l-22 -26q-63 57 -156 57q-104 0 -169.5 -69.5t-65.5 -170.5q0 -102 65 -172.5t173 -70.5q90 0 153 36v180h-128v33h165v-236q-80 -46 -191 -46q-122 0 -198.5 78.5t-76.5 197.5t77 196.5t196 77.5q110 0 178 -65zM359 -44l-64 -185h-29l54 185h39z" />
    <glyph glyph-name="kgreenlandic.sc" horiz-adv-x="475" 
d="M135 523v-237h2l254 237h52l-263 -240l276 -283h-53l-266 277h-2v-277h-37v523h37z" />
    <glyph glyph-name="hcircumflex.sc" horiz-adv-x="594" 
d="M98 0v523h37v-237h323v237h37v-523h-37v253h-323v-253h-37zM318 717l105 -144h-36l-91 125l-91 -125h-36l105 144h44z" />
    <glyph glyph-name="hbar.sc" horiz-adv-x="594" 
d="M98 0v523h37v-122h323v122h37v-523h-37v253h-323v-253h-37zM135 286h323v87h-323v-87z" />
    <glyph glyph-name="igrave.sc" horiz-adv-x="233" 
d="M135 523v-523h-37v523h37zM104 573l-117 144h47l102 -144h-32z" />
    <glyph glyph-name="iacute.sc" horiz-adv-x="233" 
d="M135 523v-523h-37v523h37zM249 717l-117 -144h-32l102 144h47z" />
    <glyph glyph-name="ibreve.sc" horiz-adv-x="233" 
d="M135 523v-523h-37v523h37zM223 711h26q-8 -62 -43 -95t-90 -33t-90 33.5t-41 94.5h26q9 -47 37 -72t68 -25q86 0 107 97z" />
    <glyph glyph-name="icircumflex.sc" horiz-adv-x="233" 
d="M135 523v-523h-37v523h37zM138 717l105 -144h-36l-91 125l-91 -125h-36l105 144h44z" />
    <glyph glyph-name="itilde.sc" horiz-adv-x="233" 
d="M135 523v-523h-37v523h37zM9 598h-24q5 38 22.5 59t44.5 21q21 0 70.5 -23.5t57.5 -23.5q35 0 43 49h25q-11 -79 -68 -79q-26 0 -66 24q-39 24 -62 24q-31 0 -43 -51z" />
    <glyph glyph-name="idieresis.sc" horiz-adv-x="233" 
d="M135 523v-523h-37v523h37zM1 665q0 13 9.5 23t22.5 10q14 0 23 -10t9 -23q0 -15 -9.5 -24.5t-22.5 -9.5t-22.5 9.5t-9.5 24.5zM167 665q0 13 9 23t23 10q13 0 22.5 -10t9.5 -23q0 -15 -9.5 -24.5t-22.5 -9.5q-14 0 -23 9.5t-9 24.5z" />
    <glyph glyph-name="imacron.sc" horiz-adv-x="233" 
d="M135 523v-523h-37v523h37zM239 654v-30h-244v30h244z" />
    <glyph glyph-name="idotaccent.sc" horiz-adv-x="233" 
d="M135 523v-523h-37v523h37zM148 656q0 -14 -9.5 -23.5t-21.5 -9.5q-13 0 -22 9.5t-9 23.5t9.5 23t21.5 9t21.5 -9t9.5 -23z" />
    <glyph glyph-name="iogonek.sc" horiz-adv-x="233" 
d="M100 -223q-36 0 -61 22.5t-25 59.5q0 62 91 141h-7v523h37v-523q-47 -47 -67 -75.5t-20 -59.5q0 -27 16.5 -43t43.5 -16q37 0 64 27l12 -23q-35 -33 -84 -33z" />
    <glyph glyph-name="jcircumflex.sc" horiz-adv-x="382" 
d="M22 82l33 12q25 -73 97 -73q103 0 103 132v370h37v-376q0 -70 -34 -115t-104 -45q-52 0 -85.5 26.5t-46.5 68.5zM294 717l105 -144h-36l-91 125l-91 -125h-36l105 144h44z" />
    <glyph glyph-name="kcommaaccent.sc" horiz-adv-x="475" 
d="M135 523v-237h2l254 237h52l-263 -240l276 -283h-53l-266 277h-2v-277h-37v523h37zM286 -45l-64 -185h-29l54 185h39z" />
    <glyph glyph-name="lacute.sc" horiz-adv-x="400" 
d="M135 523v-490h249v-33h-286v523h37zM252 717l-117 -144h-32l102 144h47z" />
    <glyph glyph-name="lcaron.sc" horiz-adv-x="400" 
d="M135 523v-490h249v-33h-286v523h37zM308 523l-64 -185h-29l54 185h39z" />
    <glyph glyph-name="lcommaaccent.sc" horiz-adv-x="400" 
d="M135 523v-490h249v-33h-286v523h37zM277 -45l-64 -185h-29l54 185h39z" />
    <glyph glyph-name="lslash.sc" horiz-adv-x="400" 
d="M135 523v-202l122 104v-38l-122 -106v-248h249v-33h-286v250l-70 -60v40l70 60v233h37z" />
    <glyph glyph-name="ldot.sc" horiz-adv-x="400" 
d="M135 523v-490h249v-33h-286v523h37zM291 305q0 -14 -9.5 -23.5t-21.5 -9.5t-21.5 9t-9.5 24q0 14 9.5 23t21.5 9t21.5 -9t9.5 -23z" />
    <glyph glyph-name="nacute.sc" horiz-adv-x="611" 
d="M147 523l327 -471h2v471h37v-523h-48l-328 474h-2v-474h-37v523h49zM409 717l-117 -144h-32l102 144h47z" />
    <glyph glyph-name="ncaron.sc" horiz-adv-x="611" 
d="M147 523l327 -471h2v471h37v-523h-48l-328 474h-2v-474h-37v523h49zM434 717l-105 -144h-44l-105 144h36l91 -124l91 124h36z" />
    <glyph glyph-name="ntilde.sc" horiz-adv-x="611" 
d="M147 523l327 -471h2v471h37v-523h-48l-328 474h-2v-474h-37v523h49zM199 598h-24q5 38 22.5 59t44.5 21q21 0 70.5 -23.5t57.5 -23.5q35 0 43 49h25q-11 -79 -68 -79q-26 0 -66 24q-39 24 -62 24q-31 0 -43 -51z" />
    <glyph glyph-name="ncommaaccent.sc" horiz-adv-x="611" 
d="M147 523l327 -471h2v471h37v-523h-48l-328 474h-2v-474h-37v523h49zM336 -45l-64 -185h-29l54 185h39z" />
    <glyph glyph-name="ograve.sc" horiz-adv-x="663" 
d="M604 263q0 -121 -76.5 -198.5t-196.5 -77.5t-196 77.5t-76 198.5t76 197.5t196 76.5t196.5 -76.5t76.5 -197.5zM566 263q0 102 -64.5 171.5t-170.5 69.5q-105 0 -169.5 -69t-64.5 -172q0 -102 64.5 -172.5t169.5 -70.5t170 70.5t65 172.5zM334 573l-117 144h47l102 -144
h-32z" />
    <glyph glyph-name="oacute.sc" horiz-adv-x="663" 
d="M604 263q0 -121 -76.5 -198.5t-196.5 -77.5t-196 77.5t-76 198.5t76 197.5t196 76.5t196.5 -76.5t76.5 -197.5zM566 263q0 102 -64.5 171.5t-170.5 69.5q-105 0 -169.5 -69t-64.5 -172q0 -102 64.5 -172.5t169.5 -70.5t170 70.5t65 172.5zM447 717l-117 -144h-32l102 144
h47z" />
    <glyph glyph-name="ocircumflex.sc" horiz-adv-x="663" 
d="M604 263q0 -121 -76.5 -198.5t-196.5 -77.5t-196 77.5t-76 198.5t76 197.5t196 76.5t196.5 -76.5t76.5 -197.5zM566 263q0 102 -64.5 171.5t-170.5 69.5q-105 0 -169.5 -69t-64.5 -172q0 -102 64.5 -172.5t169.5 -70.5t170 70.5t65 172.5zM353 717l105 -144h-36l-91 125
l-91 -125h-36l105 144h44z" />
    <glyph glyph-name="otilde.sc" horiz-adv-x="663" 
d="M604 263q0 -121 -76.5 -198.5t-196.5 -77.5t-196 77.5t-76 198.5t76 197.5t196 76.5t196.5 -76.5t76.5 -197.5zM566 263q0 102 -64.5 171.5t-170.5 69.5q-105 0 -169.5 -69t-64.5 -172q0 -102 64.5 -172.5t169.5 -70.5t170 70.5t65 172.5zM224 598h-24q5 38 22.5 59
t44.5 21q21 0 70.5 -23.5t57.5 -23.5q35 0 43 49h25q-11 -79 -68 -79q-26 0 -66 24q-39 24 -62 24q-31 0 -43 -51z" />
    <glyph glyph-name="odieresis.sc" horiz-adv-x="663" 
d="M604 263q0 -121 -76.5 -198.5t-196.5 -77.5t-196 77.5t-76 198.5t76 197.5t196 76.5t196.5 -76.5t76.5 -197.5zM566 263q0 102 -64.5 171.5t-170.5 69.5q-105 0 -169.5 -69t-64.5 -172q0 -102 64.5 -172.5t169.5 -70.5t170 70.5t65 172.5zM216 665q0 13 9.5 23t22.5 10
q14 0 23 -10t9 -23q0 -15 -9.5 -24.5t-22.5 -9.5t-22.5 9.5t-9.5 24.5zM382 665q0 13 9 23t23 10q13 0 22.5 -10t9.5 -23q0 -15 -9.5 -24.5t-22.5 -9.5q-14 0 -23 9.5t-9 24.5z" />
    <glyph glyph-name="omacron.sc" horiz-adv-x="663" 
d="M604 263q0 -121 -76.5 -198.5t-196.5 -77.5t-196 77.5t-76 198.5t76 197.5t196 76.5t196.5 -76.5t76.5 -197.5zM566 263q0 102 -64.5 171.5t-170.5 69.5q-105 0 -169.5 -69t-64.5 -172q0 -102 64.5 -172.5t169.5 -70.5t170 70.5t65 172.5zM453 654v-30h-244v30h244z" />
    <glyph glyph-name="obreve.sc" horiz-adv-x="663" 
d="M604 263q0 -121 -76.5 -198.5t-196.5 -77.5t-196 77.5t-76 198.5t76 197.5t196 76.5t196.5 -76.5t76.5 -197.5zM566 263q0 102 -64.5 171.5t-170.5 69.5q-105 0 -169.5 -69t-64.5 -172q0 -102 64.5 -172.5t169.5 -70.5t170 70.5t65 172.5zM437 710h26q-8 -60 -43.5 -93.5
t-89.5 -33.5q-55 0 -90 33.5t-41 93.5h26q9 -47 37 -72t68 -25q86 0 107 97z" />
    <glyph glyph-name="ohungarumlaut.sc" horiz-adv-x="663" 
d="M604 263q0 -121 -76.5 -198.5t-196.5 -77.5t-196 77.5t-76 198.5t76 197.5t196 76.5t196.5 -76.5t76.5 -197.5zM566 263q0 102 -64.5 171.5t-170.5 69.5q-105 0 -169.5 -69t-64.5 -172q0 -102 64.5 -172.5t169.5 -70.5t170 70.5t65 172.5zM252 573l103 144h47l-118 -144
h-32zM386 573l102 144h47l-117 -144h-32z" />
    <glyph glyph-name="oslash.sc" horiz-adv-x="663" 
d="M75 -14l-20 18l69 71q-65 76 -65 188q0 122 76 198t196 76q109 0 182 -64l65 67l19 -20l-64 -65q71 -76 71 -192q0 -121 -76.5 -198.5t-196.5 -77.5q-116 0 -188 69zM331 20q106 0 170.5 70t64.5 173q0 97 -59 165l-339 -346q64 -62 163 -62zM150 102l337 345
q-64 57 -156 57q-105 0 -169.5 -69t-64.5 -172q0 -96 53 -161z" />
    <glyph glyph-name="oe.sc" horiz-adv-x="778" 
d="M430 255v-222h288v-33h-381q-117 0 -195.5 72t-78.5 189t79 189.5t195 72.5h370v-33h-277v-202h261v-33h-261zM339 34h54v456h-54q-102 0 -170 -65t-68 -164t67.5 -163t170.5 -64z" />
    <glyph glyph-name="racute.sc" horiz-adv-x="484" 
d="M135 251v-251h-37v523h149q75 0 124.5 -32.5t49.5 -104.5q0 -61 -40 -93t-101 -39l152 -254h-43l-147 251h-107zM135 490v-207h110q67 0 103 26.5t36 76.5q0 104 -142 104h-107zM344 717l-117 -144h-32l102 144h47z" />
    <glyph glyph-name="rcaron.sc" horiz-adv-x="484" 
d="M135 251v-251h-37v523h149q75 0 124.5 -32.5t49.5 -104.5q0 -61 -40 -93t-101 -39l152 -254h-43l-147 251h-107zM135 490v-207h110q67 0 103 26.5t36 76.5q0 104 -142 104h-107zM369 717l-105 -144h-44l-105 144h36l91 -124l91 124h36z" />
    <glyph glyph-name="rcommaaccent.sc" horiz-adv-x="484" 
d="M135 251v-251h-37v523h149q75 0 124.5 -32.5t49.5 -104.5q0 -61 -40 -93t-101 -39l152 -254h-43l-147 251h-107zM135 490v-207h110q67 0 103 26.5t36 76.5q0 104 -142 104h-107zM280 -44l-64 -185h-29l54 185h39z" />
    <glyph glyph-name="sacute.sc" horiz-adv-x="427" 
d="M364 477l-25 -23q-50 50 -116 50q-51 0 -89 -29t-38 -79q0 -42 28.5 -68t69 -40t81 -29t69 -46t28.5 -80q0 -69 -48 -107.5t-117 -38.5q-104 0 -160 69l26 25q54 -61 133 -61q53 0 91 29.5t38 80.5q0 42 -28.5 68t-69 39.5t-81 28t-69 46.5t-28.5 82q0 67 49 105t117 38
q89 0 139 -60zM319 717l-117 -144h-32l102 144h47z" />
    <glyph glyph-name="scircumflex.sc" horiz-adv-x="427" 
d="M364 477l-25 -23q-50 50 -116 50q-51 0 -89 -29t-38 -79q0 -42 28.5 -68t69 -40t81 -29t69 -46t28.5 -80q0 -69 -48 -107.5t-117 -38.5q-104 0 -160 69l26 25q54 -61 133 -61q53 0 91 29.5t38 80.5q0 42 -28.5 68t-69 39.5t-81 28t-69 46.5t-28.5 82q0 67 49 105t117 38
q89 0 139 -60zM246 717l105 -144h-36l-91 125l-91 -125h-36l105 144h44z" />
    <glyph glyph-name="scaron.sc" horiz-adv-x="427" 
d="M364 477l-25 -23q-50 50 -116 50q-51 0 -89 -29t-38 -79q0 -42 28.5 -68t69 -40t81 -29t69 -46t28.5 -80q0 -69 -48 -107.5t-117 -38.5q-104 0 -160 69l26 25q54 -61 133 -61q53 0 91 29.5t38 80.5q0 42 -28.5 68t-69 39.5t-81 28t-69 46.5t-28.5 82q0 67 49 105t117 38
q89 0 139 -60zM351 717l-105 -144h-44l-105 144h36l91 -124l91 124h36z" />
    <glyph glyph-name="scedilla.sc" horiz-adv-x="427" 
d="M364 477l-25 -23q-50 50 -116 50q-51 0 -89 -29t-38 -79q0 -42 28.5 -68t69 -40t81 -29t69 -46t28.5 -80q0 -66 -44 -104.5t-109 -40.5l-46 -71q21 7 48 7q35 0 60 -17t25 -52q0 -44 -34.5 -63t-79.5 -19q-46 0 -91 20l8 23q35 -17 82 -17q33 0 57.5 13t24.5 43
q0 47 -66 47q-37 0 -61 -13l-13 11l58 88q-93 5 -144 68l26 25q54 -61 133 -61q53 0 91 29.5t38 80.5q0 42 -28.5 68t-69 39.5t-81 28t-69 46.5t-28.5 82q0 67 49 105t117 38q89 0 139 -60z" />
    <glyph glyph-name="scommaaccent.sc" horiz-adv-x="427" 
d="M364 477l-25 -23q-50 50 -116 50q-51 0 -89 -29t-38 -79q0 -42 28.5 -68t69 -40t81 -29t69 -46t28.5 -80q0 -69 -48 -107.5t-117 -38.5q-104 0 -160 69l26 25q54 -61 133 -61q53 0 91 29.5t38 80.5q0 42 -28.5 68t-69 39.5t-81 28t-69 46.5t-28.5 82q0 67 49 105t117 38
q89 0 139 -60zM236 -46l-64 -185h-29l54 185h39z" />
    <glyph glyph-name="tcaron.sc" horiz-adv-x="414" 
d="M225 490v-490h-36v490h-175v33h386v-33h-175zM334 717l-105 -144h-44l-105 144h36l91 -124l91 124h36z" />
    <glyph glyph-name="tcommaaccent.sc" horiz-adv-x="414" 
d="M225 490v-490h-36v490h-175v33h386v-33h-175zM236 -45l-64 -185h-29l54 185h39z" />
    <glyph glyph-name="tbar.sc" horiz-adv-x="414" 
d="M65 331v29h124v130h-175v33h386v-33h-175v-130h124v-29h-124v-331h-36v331h-124z" />
    <glyph glyph-name="thorn.sc" horiz-adv-x="465" 
d="M99 0v523h36v-101h114q79 0 125.5 -32.5t46.5 -103.5q0 -70 -47.5 -103.5t-125.5 -33.5h-113v-149h-36zM135 389v-207h106q143 0 143 104q0 103 -143 103h-106z" />
    <glyph glyph-name="ugrave.sc" horiz-adv-x="578" 
d="M289 -13q-101 0 -150 60t-49 150v326h37v-323q0 -78 39 -128.5t123 -50.5q83 0 122 50.5t39 128.5v323h37v-326q0 -90 -49 -150t-149 -60zM280 573l-117 144h47l102 -144h-32z" />
    <glyph glyph-name="uacute.sc" horiz-adv-x="578" 
d="M289 -13q-101 0 -150 60t-49 150v326h37v-323q0 -78 39 -128.5t123 -50.5q83 0 122 50.5t39 128.5v323h37v-326q0 -90 -49 -150t-149 -60zM413 717l-117 -144h-32l102 144h47z" />
    <glyph glyph-name="ucircumflex.sc" horiz-adv-x="578" 
d="M289 -13q-101 0 -150 60t-49 150v326h37v-323q0 -78 39 -128.5t123 -50.5q83 0 122 50.5t39 128.5v323h37v-326q0 -90 -49 -150t-149 -60zM311 717l105 -144h-36l-91 125l-91 -125h-36l105 144h44z" />
    <glyph glyph-name="utilde.sc" horiz-adv-x="578" 
d="M289 -13q-101 0 -150 60t-49 150v326h37v-323q0 -78 39 -128.5t123 -50.5q83 0 122 50.5t39 128.5v323h37v-326q0 -90 -49 -150t-149 -60zM183 598h-24q5 38 22.5 59t44.5 21q21 0 70.5 -23.5t57.5 -23.5q35 0 43 49h25q-11 -79 -68 -79q-26 0 -66 24q-39 24 -62 24
q-31 0 -43 -51z" />
    <glyph glyph-name="udieresis.sc" horiz-adv-x="578" 
d="M289 -13q-101 0 -150 60t-49 150v326h37v-323q0 -78 39 -128.5t123 -50.5q83 0 122 50.5t39 128.5v323h37v-326q0 -90 -49 -150t-149 -60zM176 665q0 13 9.5 23t22.5 10q14 0 23 -10t9 -23q0 -15 -9.5 -24.5t-22.5 -9.5t-22.5 9.5t-9.5 24.5zM342 665q0 13 9 23t23 10
q13 0 22.5 -10t9.5 -23q0 -15 -9.5 -24.5t-22.5 -9.5q-14 0 -23 9.5t-9 24.5z" />
    <glyph glyph-name="umacron.sc" horiz-adv-x="578" 
d="M289 -13q-101 0 -150 60t-49 150v326h37v-323q0 -78 39 -128.5t123 -50.5q83 0 122 50.5t39 128.5v323h37v-326q0 -90 -49 -150t-149 -60zM412 654v-30h-244v30h244z" />
    <glyph glyph-name="ubreve.sc" horiz-adv-x="578" 
d="M289 -13q-101 0 -150 60t-49 150v326h37v-323q0 -78 39 -128.5t123 -50.5q83 0 122 50.5t39 128.5v323h37v-326q0 -90 -49 -150t-149 -60zM396 710h26q-8 -60 -43.5 -93.5t-89.5 -33.5q-55 0 -90 33.5t-41 93.5h26q9 -47 37 -72t68 -25q86 0 107 97z" />
    <glyph glyph-name="uring.sc" horiz-adv-x="578" 
d="M289 -13q-101 0 -150 60t-49 150v326h37v-323q0 -78 39 -128.5t123 -50.5q83 0 122 50.5t39 128.5v323h37v-326q0 -90 -49 -150t-149 -60zM385 659q0 -40 -28.5 -67.5t-67.5 -27.5t-67.5 27.5t-28.5 67.5q0 39 28.5 67t67.5 28t67.5 -28t28.5 -67zM361 659q0 30 -21 51
t-51 21t-51 -21t-21 -51t21 -51t51 -21t51 21t21 51z" />
    <glyph glyph-name="uhungarumlaut.sc" horiz-adv-x="578" 
d="M289 -13q-101 0 -150 60t-49 150v326h37v-323q0 -78 39 -128.5t123 -50.5q83 0 122 50.5t39 128.5v323h37v-326q0 -90 -49 -150t-149 -60zM198 573l103 144h47l-118 -144h-32zM332 573l102 144h47l-117 -144h-32z" />
    <glyph glyph-name="uogonek.sc" horiz-adv-x="578" 
d="M367 -167l13 -23q-38 -33 -85 -33q-36 0 -60.5 22.5t-24.5 59.5q0 56 76 128q-100 0 -148 60t-48 150v326h37v-323q0 -78 39 -128.5t123 -50.5q83 0 122 50.5t39 128.5v323h37v-326q0 -85 -40.5 -142t-126.5 -66q-42 -42 -59.5 -68.5t-17.5 -55.5q0 -27 17 -43t44 -16
q38 0 63 27z" />
    <glyph glyph-name="wacute.sc" horiz-adv-x="750" 
d="M69 523l140 -478h2l139 478h48l142 -478h2l139 478h39l-156 -523h-46l-143 478h-2l-142 -478h-45l-156 523h39zM507 717l-117 -144h-32l102 144h47z" />
    <glyph glyph-name="wcircumflex.sc" horiz-adv-x="750" 
d="M69 523l140 -478h2l139 478h48l142 -478h2l139 478h39l-156 -523h-46l-143 478h-2l-142 -478h-45l-156 523h39zM397 717l105 -144h-36l-91 125l-91 -125h-36l105 144h44z" />
    <glyph glyph-name="wdieresis.sc" horiz-adv-x="750" 
d="M69 523l140 -478h2l139 478h48l142 -478h2l139 478h39l-156 -523h-46l-143 478h-2l-142 -478h-45l-156 523h39zM259 664q0 14 9.5 23.5t22.5 9.5q14 0 23 -9.5t9 -23.5t-9.5 -23.5t-22.5 -9.5t-22.5 9.5t-9.5 23.5zM425 664q0 14 9 23.5t23 9.5q13 0 22.5 -9.5t9.5 -23.5
t-9.5 -23.5t-22.5 -9.5q-14 0 -23 9.5t-9 23.5z" />
    <glyph glyph-name="wgrave.sc" horiz-adv-x="750" 
d="M69 523l140 -478h2l139 478h48l142 -478h2l139 478h39l-156 -523h-46l-143 478h-2l-142 -478h-45l-156 523h39zM358 573l-117 144h47l102 -144h-32z" />
    <glyph glyph-name="yacute.sc" horiz-adv-x="427" 
d="M231 227v-227h-36v227l-185 296h43l161 -264l160 264h43zM325 717l-117 -144h-32l102 144h47z" />
    <glyph glyph-name="ycircumflex.sc" horiz-adv-x="427" 
d="M231 227v-227h-36v227l-185 296h43l161 -264l160 264h43zM236 717l105 -144h-36l-91 125l-91 -125h-36l105 144h44z" />
    <glyph glyph-name="ydieresis.sc" horiz-adv-x="427" 
d="M231 227v-227h-36v227l-185 296h43l161 -264l160 264h43zM100 665q0 13 9.5 23t22.5 10q14 0 23 -10t9 -23q0 -15 -9.5 -24.5t-22.5 -9.5t-22.5 9.5t-9.5 24.5zM266 665q0 13 9 23t23 10q13 0 22.5 -10t9.5 -23q0 -15 -9.5 -24.5t-22.5 -9.5q-14 0 -23 9.5t-9 24.5z" />
    <glyph glyph-name="ygrave.sc" horiz-adv-x="427" 
d="M231 227v-227h-36v227l-185 296h43l161 -264l160 264h43zM219 573l-117 144h47l102 -144h-32z" />
    <glyph glyph-name="zacute.sc" horiz-adv-x="465" 
d="M414 523v-35l-327 -455h332v-33h-374v35l329 455h-318v33h358zM325 717l-117 -144h-32l102 144h47z" />
    <glyph glyph-name="zcaron.sc" horiz-adv-x="465" 
d="M414 523v-35l-327 -455h332v-33h-374v35l329 455h-318v33h358zM366 717l-105 -144h-44l-105 144h36l91 -124l91 124h36z" />
    <glyph glyph-name="zdotaccent.sc" horiz-adv-x="465" 
d="M414 523v-35l-327 -455h332v-33h-374v35l329 455h-318v33h358zM265 665q0 -14 -9.5 -23.5t-21.5 -9.5t-21.5 9t-9.5 24q0 14 9.5 23t21.5 9t21.5 -9t9.5 -23z" />
    <glyph glyph-name="ij.sc" horiz-adv-x="614" 
d="M135 523v-523h-37v523h37zM253 82l34 12q25 -73 97 -73q103 0 103 132v370h36v-376q0 -70 -33.5 -115t-103.5 -45q-52 0 -86 27t-47 68z" />
    <glyph glyph-name="germandbls.sc" horiz-adv-x="882" 
d="M819 477l-25 -23q-50 50 -116 50q-51 0 -89 -29t-38 -79q0 -42 28.5 -68t69 -40t81 -29t69 -46t28.5 -80q0 -69 -48 -107.5t-117 -38.5q-104 0 -160 69l26 25q54 -61 133 -61q53 0 91 29.5t38 80.5q0 42 -28.5 68t-69 39.5t-81 28t-69 46.5t-28.5 82q0 67 49 105t117 38
q89 0 139 -60zM375 477l-25 -23q-50 50 -116 50q-51 0 -89 -29t-38 -79q0 -42 28.5 -68t69 -40t81 -29t69 -46t28.5 -80q0 -69 -48 -107.5t-117 -38.5q-104 0 -160 69l26 25q54 -61 133 -61q53 0 91 29.5t38 80.5q0 42 -28.5 68t-69 39.5t-81 28t-69 46.5t-28.5 82
q0 67 49 105t117 38q89 0 139 -60z" />
    <glyph glyph-name="eng.sc" horiz-adv-x="611" 
d="M98 0v523h49l327 -463h2v463h37v-619q0 -72 -25.5 -108.5t-93.5 -36.5q-19 0 -37 5l6 30q15 -4 31 -4q27 0 44.5 9t25 27.5t10 36t2.5 43.5v85l-339 483h-2v-474h-37z" />
    <glyph glyph-name="grave.sc" horiz-adv-x="240" 
d="M128 573l-117 144h47l102 -144h-32z" />
    <glyph glyph-name="acute.sc" horiz-adv-x="240" 
d="M229 717l-117 -144h-32l102 144h47z" />
    <glyph glyph-name="circumflex.sc" horiz-adv-x="240" 
d="M142 717l105 -144h-36l-91 125l-91 -125h-36l105 144h44z" />
    <glyph glyph-name="caron.sc" horiz-adv-x="240" 
d="M247 717l-105 -144h-44l-105 144h36l91 -124l91 124h36z" />
    <glyph glyph-name="tilde.sc" horiz-adv-x="240" 
d="M13 598h-24q5 38 22.5 59t44.5 21q21 0 70.5 -23.5t57.5 -23.5q35 0 43 49h25q-11 -79 -68 -79q-26 0 -66 24q-39 24 -62 24q-31 0 -43 -51z" />
    <glyph glyph-name="dieresis.sc" horiz-adv-x="240" 
d="M5 665q0 13 9.5 23t22.5 10q14 0 23 -10t9 -23q0 -15 -9.5 -24.5t-22.5 -9.5t-22.5 9.5t-9.5 24.5zM171 665q0 13 9 23t23 10q13 0 22.5 -10t9.5 -23q0 -15 -9.5 -24.5t-22.5 -9.5q-14 0 -23 9.5t-9 24.5z" />
    <glyph glyph-name="macron.sc" horiz-adv-x="240" 
d="M242 654v-30h-244v30h244z" />
    <glyph glyph-name="breve.sc" horiz-adv-x="240" 
d="M226 710h26q-8 -60 -43.5 -93.5t-89.5 -33.5q-55 0 -90 33.5t-41 93.5h26q9 -47 37 -72t68 -25q86 0 107 97z" />
    <glyph glyph-name="ring.sc" horiz-adv-x="240" 
d="M216 659q0 -40 -28.5 -67.5t-67.5 -27.5t-67.5 27.5t-28.5 67.5q0 39 28.5 67t67.5 28t67.5 -28t28.5 -67zM192 659q0 30 -21 51t-51 21t-51 -21t-21 -51t21 -51t51 -21t51 21t21 51z" />
    <glyph glyph-name="hungarumlaut.sc" horiz-adv-x="240" 
d="M9 573l103 144h47l-118 -144h-32zM143 573l102 144h47l-117 -144h-32z" />
    <glyph glyph-name="dotaccent.sc" horiz-adv-x="240" 
d="M151 665q0 -14 -9.5 -23.5t-21.5 -9.5t-21.5 9t-9.5 24q0 14 9.5 23t21.5 9t21.5 -9t9.5 -23z" />
    <glyph glyph-name="exclamdown.sc" horiz-adv-x="261" 
d="M149 0h-37v381h37v-381zM163 496q0 -15 -9 -25t-23 -10t-23.5 10t-9.5 25q0 14 9.5 23.5t23.5 9.5t23 -9.5t9 -23.5z" />
    <glyph glyph-name="questiondown.sc" horiz-adv-x="318" 
d="M151 -13q-56 0 -87 35.5t-31 95.5q0 43 14 69.5t45 57.5q31 29 41.5 53t10.5 59v32h36v-41q0 -51 -37 -97l-20 -22q-30 -32 -41.5 -52.5t-11.5 -57.5q0 -45 22.5 -72t60.5 -27q74 0 91 96l35 -6q-19 -123 -128 -123zM157 485q-12 0 -21 9t-9 23q0 13 8.5 22.5t21.5 9.5
q14 0 22.5 -9.5t8.5 -22.5q0 -14 -8.5 -23t-22.5 -9z" />
    <glyph glyph-name="Euro.sc" horiz-adv-x="470" 
d="M409 510l-14 -31q-44 24 -98 24q-65 0 -113 -43.5t-65 -123.5h236l-10 -29h-230q-4 -25 -4 -51q0 -18 3 -42h207l-10 -30h-192q12 -74 58 -119.5t114 -45.5q61 0 110 33l15 -29q-51 -36 -127 -36q-85 0 -141.5 56t-68.5 141h-53l10 30h38q-1 12 -1 39q0 39 3 54h-51
l10 29h45q20 97 78.5 149t139.5 52q62 0 111 -27z" />
    <glyph glyph-name="cent.sc" horiz-adv-x="470" 
d="M298 -72h-32v60q-95 8 -154.5 76t-59.5 167q0 100 59.5 167t154.5 77v65h32v-64q93 -5 148 -66l-25 -23q-47 53 -123 58v-426q74 1 130 54l22 -22q-56 -59 -152 -64v-59zM90 231q0 -83 48 -143t128 -68v423q-80 -10 -128 -69.5t-48 -142.5z" />
    <glyph glyph-name="sterling.sc" horiz-adv-x="470" 
d="M310 287v-31h-122v-223h183v-33h-297v33h77v223h-69v31h69v89q0 75 37 118t106 43q58 0 96 -35l-24 -26q-32 29 -73 29q-105 0 -105 -133v-85h122z" />
    <glyph glyph-name="florin.sc" horiz-adv-x="470" 
d="M340 293v-29h-97l-41 -235q-19 -115 -108 -115q-42 0 -67 17l15 30q25 -15 52 -15q33 0 49.5 24t25.5 76l37 218h-85v29h89l21 122q20 120 116 120q45 0 74 -23l-20 -26q-21 18 -53 18q-65 0 -80 -88l-22 -123h94z" />
    <glyph glyph-name="yen.sc" horiz-adv-x="470" 
d="M88 165h130v83h-130v29h121l-172 246h42l158 -232l157 232h40l-170 -246h120v-29h-130v-83h130v-29h-130v-136h-36v136h-130v29z" />
    <glyph glyph-name="perthousand.sc" horiz-adv-x="967" 
d="M311 413q0 -52 -36 -87.5t-88 -35.5q-51 0 -86.5 35.5t-35.5 87.5t35.5 88t86.5 36q52 0 88 -36t36 -88zM278 413q0 39 -26.5 66t-64.5 27q-37 0 -63.5 -27t-26.5 -66q0 -40 26 -66t64 -26q39 0 65 25.5t26 66.5zM617 110q0 -52 -36 -87.5t-87 -35.5t-87 35.5t-36 87.5
t36 88t87 36t87 -36t36 -88zM584 110q0 40 -26 66.5t-64 26.5t-64 -26.5t-26 -66.5q0 -41 25.5 -66.5t64.5 -25.5t64.5 25.5t25.5 66.5zM913 110q0 -52 -36 -87.5t-88 -35.5q-51 0 -86.5 35.5t-35.5 87.5t35.5 88t86.5 36q52 0 88 -36t36 -88zM880 110q0 40 -26.5 66.5
t-64.5 26.5q-37 0 -63.5 -27t-26.5 -66q0 -40 26 -66t64 -26q39 0 65 25.5t26 66.5zM519 536l-333 -564l-27 15l334 565z" />
    <glyph glyph-name="zero.onum" horiz-adv-x="678" 
d="M612 263q0 -122 -76.5 -199.5t-197.5 -77.5q-120 0 -196.5 77.5t-76.5 199.5t76.5 198t196.5 76q121 0 197.5 -76t76.5 -198zM573 263q0 102 -64.5 171.5t-170.5 69.5q-105 0 -169.5 -69t-64.5 -172q0 -104 64 -173.5t170 -69.5t170.5 69.5t64.5 173.5z" />
    <glyph glyph-name="one.onum" horiz-adv-x="361" 
d="M216 0h-37v476l-106 -90l-22 27l132 110h33v-523z" />
    <glyph glyph-name="two.onum" horiz-adv-x="518" 
d="M445 0h-383v37l119 87q120 87 166.5 137.5t46.5 114.5q0 59 -39.5 93.5t-101.5 34.5q-109 0 -151 -101l-31 15q50 119 182 119q80 0 129.5 -42.5t49.5 -117.5q0 -73 -47.5 -127.5t-168.5 -141.5l-100 -72v-3h329v-33z" />
    <glyph glyph-name="three.onum" horiz-adv-x="522" 
d="M179 -170q-57 0 -101 10l6 35q46 -12 95 -12q98 0 162.5 49t64.5 149q0 83 -56 128.5t-136 45.5q-48 0 -104 -17l-9 28q145 113 287 241v4h-313v32h354v-42q-46 -41 -260 -220v-3q27 7 57 7q89 0 153.5 -53.5t64.5 -148.5q0 -115 -75.5 -174t-189.5 -59z" />
    <glyph glyph-name="four.onum" horiz-adv-x="556" 
d="M524 11h-120v-181h-37v181h-318v34l293 492h40l-294 -493h279v281h37v-281h120v-33z" />
    <glyph glyph-name="five.onum" horiz-adv-x="520" 
d="M436 523v-34h-278l-27 -245q38 15 89 15q93 0 156 -51.5t63 -147.5q0 -113 -71.5 -171.5t-180.5 -58.5q-60 0 -109 11l6 34q50 -12 101 -12q99 0 158 51t59 145q0 85 -54 127t-135 42q-66 0 -120 -26l34 321h309z" />
    <glyph glyph-name="six.onum" horiz-adv-x="568" 
d="M501 204q0 -94 -62 -156t-156 -62q-96 0 -156.5 61.5t-60.5 159.5q0 67 30 140.5t80.5 141.5t98 120t101.5 102l30 -21q-86 -73 -161 -166.5t-111 -175.5l2 -1q60 75 158 75q91 0 149 -61.5t58 -156.5zM288 391q-77 0 -130.5 -53t-53.5 -135q0 -80 50 -132t130 -52
q78 0 128.5 52t50.5 133t-48.5 134t-126.5 53z" />
    <glyph glyph-name="seven.onum" horiz-adv-x="512" 
d="M456 523v-34q-207 -430 -303 -673l-38 11q119 284 304 662h-362v34h399z" />
    <glyph glyph-name="eight.onum" horiz-adv-x="565" 
d="M497 189q0 -91 -61 -146.5t-154 -55.5t-153.5 55.5t-60.5 146.5q0 66 37.5 117.5t107.5 71.5v2q-58 22 -88.5 66.5t-30.5 97.5q0 78 53.5 127.5t134.5 49.5q82 0 135.5 -48.5t53.5 -127.5q0 -54 -31 -99.5t-89 -65.5v-2q72 -21 109 -72t37 -117zM282 690
q-64 0 -107.5 -41t-43.5 -105q0 -62 43 -106t108 -44t108.5 44t43.5 106q0 64 -44 105t-108 41zM459 190q0 75 -51 124t-126 49t-125.5 -49t-50.5 -124q0 -74 48.5 -122.5t127.5 -48.5t128 48.5t49 122.5z" />
    <glyph glyph-name="nine.onum" horiz-adv-x="568" 
d="M501 318q0 -67 -30 -141t-79.5 -141t-98.5 -120.5t-101 -99.5l-30 21q86 71 161.5 163t110.5 174l-2 2q-62 -74 -158 -74q-91 0 -149 61.5t-58 155.5q0 95 62 156.5t156 61.5q95 0 155.5 -61t60.5 -158zM284 505q-78 0 -128.5 -52t-50.5 -133t48.5 -134t126.5 -53
q77 0 130.5 53t53.5 134q0 80 -51 132.5t-129 52.5z" />
    <glyph glyph-name="napostrophe.sc" horiz-adv-x="630" 
d="M166 523l327 -471h2v471h37v-523h-48l-328 474h-2v-474h-37v523h49zM66 523l-64 -185h-29l54 185h39z" />
    <glyph glyph-name="ordfeminine.sc" horiz-adv-x="353" 
d="M93 504l-33 -73h-32l132 290h37l129 -290h-33l-31 73h-169zM179 695l-78 -168h152z" />
    <glyph glyph-name="fi.sc" horiz-adv-x="691" 
d="M135 251v-251h-37v523h307v-33h-270v-206h252v-33h-252zM592 523v-523h-36v523h36z" />
    <glyph glyph-name="fl.sc" horiz-adv-x="857" 
d="M135 251v-251h-37v523h307v-33h-270v-206h252v-33h-252zM593 523v-490h249v-33h-286v523h37z" />
    </font>
</defs>
</svg>
